Марсіянин [Розширена версія] / The Martian [Extended Cut] (2015) Remux 1080p Ukr/Eng | Sub Ukr/Eng

Нові коментарі

Нова тема   Відповісти
Автор Повідомлення
Anonymous 







2020-06-03 00:11  
Марсіянин [Розширена версія] / The Martian [Extended Cut] (2015) Remux 1080p Ukr/Eng | Sub Ukr/Eng

Марсіянин [Розширена версія] / The Martian [Extended Cut] (2015) Remux 1080p Ukr/Eng | Sub Ukr/Eng


Жанр: фантастика, пригодницький
Країна: США, Велика Британія



Кінокомпанія: 20th Century Fox Film Corporation, Genre Films, International Traders, Mid Atlantic Films, Scott Free Productions, TSG Entertainment
Режисер: Рідлі Скотт
Актори: Метт Деймон, Джесіка Честейн, Крістен Віґ, Джеф Деніелс, Кейт Мара, Майкл Пенья, Шон Бін, Себастьян Стен, Чіветел Еджіофор, Маккензі Девіс, Дональд Ґловер

Сюжет:
Марк Вотні - один з членів експедиції "Арес-3" на Марс. Щоб уникнути загибелі людей під час лютої бурі, було прийнято рішення всю місію евакуювати. Однак не всі встигли вчасно покинути червону планету. На Землі прийшли до висновку, що Марк Вотні трагічно загинув під час сильної бурі, хоча насправді він живий. У нього найважча місія в історії людства: вижити на чужій планеті одному, з обмеженою кількістю продуктів і без можливості зв'язатися з домом. До наступної місії на Марс потрібно чекати як мінімум чотири роки. Марку доведеться використовувати всю свою кмітливість і навички, щоб не тільки повідомити про те, що він не помер, але і постаратися зберегти своє життя...


Тривалість: 02:31:20 [Розширена версія] - порівняння театральної та розширеної версій
Якість: Blu-Ray Remux 1080p

Відео:
кодек:
розмір кадру: 1920x1080
бітрейт: ~ 26900 кб/с

Аудіо # 1:
мова: українська
переклад: професійний дубльований з вставками оригіналу
кодек: 5.1
бітрейт: 448 кб/с

Аудіо # 2:
мова: англійська
переклад: оригінал
кодек: 5.1
бітрейт: 448 кб/с

Аудіо # 3:
мова: англійська
переклад: оригінал
кодек: -HD MA 7.1
бітрейт: 4968 кб/с

Джерело озвучення:


Субтитри # 1:
мова: українська (форсовані - на розширені моменти)
тип: програмні (м'які)
формат: *.srt

Субтитри # 2:
мова: українська (повні)
тип: програмні (м'які)
формат: *.srt

Субтитри # 3:
мова: англійська (повні)
тип: програмні (м'які)
формат: *.srt

Субтитри # 4:
мова: англійська SDH (повні)
тип: програмні (м'які)
формат: *.srt

Субтитри # 5:
мова: англійська SDH кольорові (повні)
тип: програмні (м'які)
формат: *.srt

Субтитри # 6:
мова: англійська (форсовані)
тип: програмні (м'які)
формат: *.srt

Субтитри # 7:
мова: англійська (коментарі режисера)
тип: програмні (м'які)
формат: *.srt

Субтитри # 8:
мова: англійська (коментарі режисера)
тип: програмні (м'які)
формат: *.srt
Info
Код:
General
Complete name                            : The Martian [Extended Cut] (2015) Blu-Ray Remux 1080p [Ukr, Eng] [Video_Hurtom].
Format                                   :
Format version                           : Version 4
File size                                : 34.6 GiB
Duration                                 : 2 h 31 min
Overall bit rate mode                    : Variable
Overall bit rate                         : 32.7 Mb/s
Movie name                               : Марсіянин [Розширена версія] / The Martian [Extended Cut] (2015)
Encoded date                             : UTC 2020-06-02 21:04:38
Writing application                      : v30.1.0 ('Forever And More') 64-bit
Writing library                          : libebml v1.3.6 + v1.4.9
Cover                                    : Yes
Attachments                              : cover.jpg

Video
ID                                       : 1
Format                                   : AVC
Format/Info                              : Advanced Video Codec
Format profile                           : [email protected]
Format settings                          : CABAC / 4 Ref Frames
Format settings, CABAC                   : Yes
Format settings, RefFrames               : 4 frames
Codec ID                                 : V_MPEG4/ISO/AVC
Duration                                 : 2 h 31 min
Bit rate mode                            : Variable
Bit rate                                 : 26.9 Mb/s
Maximum bit rate                         : 34.0 Mb/s
Width                                    : 1 920 pixels
Height                                   : 1 080 pixels
Display aspect ratio                     : 16:9
Frame rate mode                          : Constant
Frame rate                               : 23.976 (24000/1001) FPS
Color space                              : YUV
Chroma subsampling                       : 4:2:0
Bit depth                                : 8 bits
Scan type                                : Progressive
Bits/(Pixel*Frame)                       : 0.540
Stream size                              : 28.4 GiB (82%)
Language                                 : English
Default                                  : No
Forced                                   : No

Audio #1
ID                                       : 2
Format                                   : AC-3
Format/Info                              : Audio Coding 3
Commercial name                          : Dolby Digital
Codec ID                                 : A_AC3
Duration                                 : 2 h 31 min
Bit rate mode                            : Constant
Bit rate                                 : 448 kb/s
Channel(s)                               : 6 channels
Channel layout                           : L R C LFE Ls Rs
Sampling rate                            : 48.0 kHz
Frame rate                               : 31.250 FPS (1536 SPF)
Bit depth                                : 16 bits
Compression mode                         : Lossy
Stream size                              : 485 MiB (1%)
Title                                    : 5.1 | 448
Language                                 : Ukrainian
Service kind                             : Complete Main
Default                                  : Yes
Forced                                   : No

Audio #2
ID                                       : 3
Format                                   : AC-3
Format/Info                              : Audio Coding 3
Commercial name                          : Dolby Digital
Codec ID                                 : A_AC3
Duration                                 : 2 h 31 min
Bit rate mode                            : Constant
Bit rate                                 : 448 kb/s
Channel(s)                               : 6 channels
Channel layout                           : L R C LFE Ls Rs
Sampling rate                            : 48.0 kHz
Frame rate                               : 31.250 FPS (1536 SPF)
Bit depth                                : 16 bits
Compression mode                         : Lossy
Stream size                              : 485 MiB (1%)
Title                                    : 5.1 | 448
Language                                 : English
Service kind                             : Complete Main
Default                                  : No
Forced                                   : No

Audio #3
ID                                       : 4
Format                                   : XLL
Format/Info                              : Digital Theater Systems
Commercial name                          : -HD Master Audio
Codec ID                                 : A_DTS
Duration                                 : 2 h 31 min
Bit rate mode                            : Variable
Bit rate                                 : 4 968 kb/s
Channel(s)                               : 8 channels
Channel layout                           : C L R LFE Lb Rb Lss Rss
Sampling rate                            : 48.0 kHz
Frame rate                               : 93.750 FPS (512 SPF)
Bit depth                                : 24 bits
Compression mode                         : Lossless
Stream size                              : 5.25 GiB (15%)
Title                                    : -HD MA 7.1 | 4968
Language                                 : English
Default                                  : No
Forced                                   : No

Text #1
ID                                       : 5
Format                                   : UTF-8
Codec ID                                 : S_TEXT/UTF8
Codec ID/Info                            : UTF-8 Plain Text
Duration                                 : 2 h 25 min
Bit rate                                 : 11 b/s
Count of elements                        : 236
Stream size                              : 12.0 KiB (0%)
Title                                    : Forced
Language                                 : Ukrainian
Default                                  : Yes
Forced                                   : No

Text #2
ID                                       : 6
Format                                   : UTF-8
Codec ID                                 : S_TEXT/UTF8
Codec ID/Info                            : UTF-8 Plain Text
Duration                                 : 2 h 29 min
Bit rate                                 : 93 b/s
Count of elements                        : 1864
Stream size                              : 103 KiB (0%)
Title                                    : Full
Language                                 : Ukrainian
Default                                  : No
Forced                                   : No

Text #3
ID                                       : 7
Format                                   : UTF-8
Codec ID                                 : S_TEXT/UTF8
Codec ID/Info                            : UTF-8 Plain Text
Duration                                 : 2 h 25 min
Bit rate                                 : 61 b/s
Count of elements                        : 2092
Stream size                              : 66.0 KiB (0%)
Title                                    : Full
Language                                 : English
Default                                  : No
Forced                                   : No

Text #4
ID                                       : 8
Format                                   : UTF-8
Codec ID                                 : S_TEXT/UTF8
Codec ID/Info                            : UTF-8 Plain Text
Duration                                 : 2 h 25 min
Bit rate                                 : 66 b/s
Count of elements                        : 2256
Stream size                              : 71.3 KiB (0%)
Title                                    : SDH
Language                                 : English
Default                                  : No
Forced                                   : No

Text #5
ID                                       : 9
Format                                   : UTF-8
Codec ID                                 : S_TEXT/UTF8
Codec ID/Info                            : UTF-8 Plain Text
Duration                                 : 2 h 25 min
Bit rate                                 : 78 b/s
Count of elements                        : 2256
Stream size                              : 84.1 KiB (0%)
Title                                    : SDH-Colored
Language                                 : English
Default                                  : No
Forced                                   : No

Text #6
ID                                       : 10
Format                                   : UTF-8
Codec ID                                 : S_TEXT/UTF8
Codec ID/Info                            : UTF-8 Plain Text
Duration                                 : 47 s 714 ms
Bit rate                                 : 92 b/s
Count of elements                        : 12
Stream size                              : 550 Bytes (0%)
Title                                    : Forced
Language                                 : English
Default                                  : No
Forced                                   : No

Text #7
ID                                       : 11
Format                                   : UTF-8
Codec ID                                 : S_TEXT/UTF8
Codec ID/Info                            : UTF-8 Plain Text
Duration                                 : 2 h 27 min
Bit rate                                 : 134 b/s
Count of elements                        : 2743
Stream size                              : 145 KiB (0%)
Title                                    : коментарі режисера
Language                                 : English
Default                                  : No
Forced                                   : No

Text #8
ID                                       : 12
Format                                   : UTF-8
Codec ID                                 : S_TEXT/UTF8
Codec ID/Info                            : UTF-8 Plain Text
Duration                                 : 2 h 27 min
Bit rate                                 : 107 b/s
Count of elements                        : 2151
Stream size                              : 116 KiB (0%)
Title                                    : коментарі режисера
Language                                 : English
Default                                  : No
Forced                                   : No

Menu
00:00:00.000                             : en:Chapter 01
00:03:22.285                             : en:Chapter 03
00:10:15.156                             : en:Chapter 05
00:15:24.590                             : en:Chapter 07
00:18:25.187                             : en:Chapter 09
00:21:58.817                             : en:Chapter 11
00:24:52.532                             : en:Chapter 13
00:29:17.130                             : en:Chapter 15
00:32:01.085                             : en:Chapter 17
00:34:45.541                             : en:Chapter 19
00:40:08.155                             : en:Chapter 21
00:42:48.315                             : en:Chapter 23
00:47:50.075                             : en:Chapter 25
00:51:12.736                             : en:Chapter 27
00:58:03.396                             : en:Chapter 29
01:01:41.614                             : en:Chapter 31
01:04:24.944                             : en:Chapter 33
01:08:54.254                             : en:Chapter 35
01:11:54.101                             : en:Chapter 37
01:16:33.505                             : en:Chapter 39
01:22:05.503                             : en:Chapter 41
01:26:19.715                             : en:Chapter 43
01:37:47.653                             : en:Chapter 45
01:44:36.478                             : en:Chapter 47
01:50:38.381                             : en:Chapter 49
01:53:22.670                             : en:Chapter 51
01:59:17.566                             : en:Chapter 53
02:03:51.006                             : en:Chapter 55
02:07:32.352                             : en:Chapter 57
02:14:24.723                             : en:Chapter 59
02:20:48.397                             : en:Chapter 61
02:23:11.832                             : en:Chapter 63
02:31:20.404                             : en:Chapter 64
Скріншоти




Подяка пану Demrandir за аудіо доріжку та субтитри.
Джерело: &
Особиста оцінка: 10 - без зайвих вагань рекомендую всім!


Золотий реліз (завантажене не впливає на рейтинг)
 Трекер:    Зареєстрований   

Завантажити / скачати фільм українською



відео для новачків



 Зареєстрований:   2020-06-04 16:38
 Розмір:   34.6 GB 
 Оцінка фільму:   9.9/10 (Голосів: 15)
   
Інші релізи
   Марсіянин / The Martian (2015) HybridRip [Open Matte] 1080p H.265 Ukr/Eng | Sub Ukr/Eng -Star-Lord-  3 / 0   9.57 GB   2019-05-05 23:33 
   Марсіянин / The Martian (2015) HybridRip-AVC [Open Matte] Ukr/Eng | Sub Ukr/Eng Sando7  3 / 0   3.25 GB   2019-04-17 12:15 
   Марсіянин [Розширена версія] / The Martian [Extended Cut] (2015) 1080p H.265 Ukr/Eng | Sub Ukr/Eng ukr_anonymous  12 / 0   6.44 GB   2018-06-26 14:22 
   Марсіянин [Розширена версія] / The Martian [Extended Cut] (2015) UHD 4K 2160p Ukr/Eng | Sub Ukr/Eng Babamin  5 / 0   14.88 GB   2017-09-29 17:44 
   Марсіянин / The Martian (2015) UHD Remux 4K 2160p Ukr/Eng | Sub Ukr/Eng Babamin  7 / 1   40.29 GB   2017-09-12 13:04 
   Марсіянин [Розширена версія] / The Martian [Extended Cut] (2015) AVC Ukr/Eng | Sub Ukr/Eng Kris  10 / 0   4.47 GB   2017-07-15 20:26 
   Марсіянин [Розширена версія] / The Martian [Extended Cut] (2015) Ukr | Sub Ukr Demrandir  2 / 0   2.43 GB   2017-07-10 14:55 
   Марсіянин [Розширена версія] / The Martian [Extended Cut] (2015) [5.1 ] Український дубляж + вставки оригіналу | Sub Ukr Demrandir  0 / 0   485 MB   2017-07-10 14:39 
   Марсіянин / The Martian (2015) 720p-mini (60 fps) Drool  1 / 0   5.54 GB   2016-01-19 14:49 
   Марсіянин / The Martian (2015) AVC Ukr/Eng | Sub Ukr/Eng BASTERD-94  8 / 0   2.91 GB   2016-01-13 23:30 
   Марсіянин / The Martian (2015) Remux 1080p Ukr/Eng | Sub Ukr/Eng famous37  3 / 0   32.09 GB   2016-01-13 21:14 
   Марсіянин / The Martian (2015) 720p-mini Drool  3 / 0   2.63 GB   2016-01-13 00:01 
   Марсіянин / The Martian (2015) 1080p Ukr/Eng | Sub Ukr/Eng 11FrYkT  7 / 0   16.09 GB   2016-01-10 00:04 
   Марсіянин / The Martian (2015) 720p Ukr/Eng | Sub Ukr/Eng 11FrYkT  5 / 0   7.09 GB   2016-01-09 23:46 
   Марсіянин / The Martian (2015) Ukr/Eng | Sub Ukr/Eng Gelios  12 / 0   2.18 GB   2016-01-09 23:40 
   Марсіянин / The Martian (2015) 1080p 3D Ukr/Eng | Sub Ukr/Eng [Half SideBySide] -VipeR-  2 / 0   13.13 GB   2016-01-03 18:25 
bot 
робот


З нами з: 30.09.07
Востаннє: 26.05.05
Повідомлень: 25204

2020-06-04 16:38  
Тему перенесено з Анонси релізів до форуму Фільми в HD


antik_2008

goser 
Частий відвідувач


З нами з: 19.12.07
Востаннє: 04.07.20
Повідомлень: 48

2020-06-14 18:39  
Колись давно дивився, фільм супер. Вирішив ще раз переглянути. Рекомендую до перегляду.
Ваш часовий пояс: GMT + 2 Години

Нова тема   Відповісти