Сіпсік – лялька-друг / Raggie (2020) 1080p

Нові коментарі

Нова тема   Відповісти
Автор Повідомлення
sergiyko.5 
Забанено
Забанено


З нами з: 25.02.16
Востаннє: 29.10.20
Повідомлень: 3648

2020-06-02 14:39  
Сіпсік – лялька-друг / Raggie (2020) 1080p


Сіпсік – лялька-друг / Raggie (2020) 1080p

Жанр: дитячий
Країна: Данія, Естонія
Кінокомпанія: Cyber Group Studios
Режисер: Карстен Кілеріх, Мєеліс Арулепп

Сюжет:
Щоб маленька Рубі не сумувала за старшим братом, він створює їй ляльку, яка оживає. Іграшка на ім'я Сіпсік стає найкращим другом дівчинки та головною розрадою в її житті. Проте одного дня лялька зникає, і Рубі з братом вирушають на її пошуки.




Тривалість: 01:13:35
Якість:

Відео: кодек: розмір кадру: 1920 х 1080 бітрейт: 4000 кб/с
Аудіо: мова: українська переклад: багатоголосий закадровий кодек: 2.0 бітрейт: 128 кб/с
Про файл:
General
Unique ID : 305441488697741006406894893851648680142 (0xE5C9E414422A15C29EDF4F40D88B60CE)
Complete name : D:\Documents\Torrents\MULTSER_2\Raggie.2020.1080p..
Format :
Format version : Version 4
File size : 2.11 GiB
Duration : 1 h 13 min
Overall bit rate : 4 107 kb/s
Movie name : Raggie 2020 by sergiyko
Encoded date : UTC 2020-06-02 12:51:40
Writing application : v47.0.0 ('Black Flag') 64-bit
Writing library : libebml v1.3.10 + v1.5.2

Video
ID : 1
Format : AVC
Format/Info : Advanced Video Codec
Format profile : [email protected]
Format settings : CABAC / 4 Ref Frames
Format settings, CABAC : Yes
Format settings, Reference : 4 frames
Codec ID : V_MPEG4/ISO/AVC
Duration : 1 h 13 min
Bit rate : 4 000 kb/s
Width : 1 920 pixels
Height : 1 080 pixels
Display aspect ratio : 1.85:1
Frame rate mode : Constant
Frame rate : 24.000 FPS
Color space : YUV
Chroma subsampling : 4:2:0
Bit depth : 8 bits
Scan type : Progressive
Bits/(Pixel*Frame) : 0.080
Stream size : 2.04 GiB (97%)
Writing library : core 158 r2984 3759fcb
Encoding settings : cabac=1 / ref=1 / deblock=1:0:0 / analyse=0x3:0x132 / me=hex / subme=6 / psy=1 / psy_rd=1.00:0.00 / mixed_ref=0 / me_range=16 / chroma_me=1 / trellis=1 / 8x8dct=1 / cqm=0 / deadzone=21,11 / fast_pskip=1 / chroma_qp_offset=-2 / threads=6 / lookahead_threads=1 / sliced_threads=0 / nr=0 / decimate=1 / interlaced=0 / bluray_compat=0 / constrained_intra=0 / bframes=3 / b_pyramid=2 / b_adapt=1 / b_bias=0 / direct=1 / weightb=1 / open_gop=0 / weightp=1 / keyint=240 / keyint_min=24 / scenecut=40 / intra_refresh=0 / rc_lookahead=30 / rc=abr / mbtree=1 / bitrate=4000 / ratetol=1.0 / qcomp=0.60 / qpmin=3 / qpmax=51 / qpstep=4 / vbv_maxrate=8000 / vbv_bufsize=8000 / nal_hrd=none / filler=0 / ip_ratio=1.40 / aq=1:1.00
Language : English
Default : Yes
Forced : No

Audio
ID : 2
Format : LC
Format/Info : Advanced Audio Codec Low Complexity
Codec ID : A_AAC-2
Duration : 1 h 13 min
Bit rate : 128 kb/s
Channel(s) : 2 channels
Channel layout : L R
Sampling rate : 48.0 kHz
Frame rate : 46.875 FPS (1024 SPF)
Compression mode : Lossy
Delay relative to video : -21 ms
Stream size : 67.6 MiB (3%)
Language : Ukrainian
Default : Yes
Forced : No
Скріншоти:


Запис: sergiyko


 Трекер:    Зареєстрований   

Завантажити / скачати мультфільм українською



відео для новачків



 Зареєстрований:   2020-06-02 14:55
 Розмір:   2.11 GB 
 Оцінка мультфільму:   7.8/10 (Голосів: 5)
   
bot 
робот


З нами з: 30.09.07
Востаннє: 26.05.05
Повідомлень: 27301

2020-06-02 14:39  
Тему перенесено з Мультфільми в HD до форуму Анонси релізів


sergiyko.5

bot 
робот


З нами з: 30.09.07
Востаннє: 26.05.05
Повідомлень: 27301

2020-06-02 14:55  
Тему перенесено з Анонси релізів до форуму Мультфільми в HD


sergiyko.5

Форкуш 
VIP


З нами з: 03.02.10
Востаннє: 04.03.21
Повідомлень: 2946

2020-06-03 07:34  
Ваш часовий пояс: GMT + 2 Години

Нова тема   Відповісти