Робопотяги / Robot Trains (Сезон 1) (2017) 720p

Нові коментарі

Нова тема   Відповісти
Автор Повідомлення
sergiyko.5 
Забанено
Забанено


З нами з: 25.02.16
Востаннє: 29.10.20
Повідомлень: 3648

2020-06-01 01:43  
Всі одноіменні релізи на трекері

Робопотяги / Robot Trains (Сезон 1) (2017) 720p


Робопотяги / Robot Trains (Сезон 1) (2017) 720p

Жанр: пригоди, сімейний
Країна: Південна Корея
Кінокомпанія: Formula Comics Entertainment
Режисер: Ю Лі

Сюжет:
Кей найсильніший в світі роботопотягів і тільки він може відкривати тунелі між зонами. Але в бою з охопленим вірусом потягом Дюком, Кей втратив пам’ять. І тепер його друзі намагаються допомогти йому згадати все!

Мультфільм «Робопотяги» розповість нам про синього потужного потяга Кея і його команду вірних друзів. Разом з ними ми буде прокладати нові залізні дороги між континентами і перемагати підступних ворогів. Кей і його друзі впораються з будь-якою проблемою, тому що вони не просто потяги! Вони – трансформери!

Вперед, потяги!




Тривалість: 1 серія: 00:14:11 (цілком серій: 32 з 32)
Якість:

Відео: кодек: розмір кадру: 1280 х 718 бітрейт: 1800 кб/с
Аудіо: мова: українська переклад: багатоголосий закадровий кодек: бітрейт: 192 кб/с
Озвучення:
Перелік серій
Серія 1. Пригоди починаються!
Серія 2. Дюк обманщик
Серія 3. Втрачені спогади
Серія 4. Вірус, що втік
Серія 5. Біжи, Кей, біжи
Серія 6. Ось і Альф
Серія 7. Ремонт годинника на вежі
Серія 8. Кей і Альф
Серія 9. Відновлена дружба
Серія 10. Джейн і Кей
Серія 11. Особливе тренування Селлі
Серія 12. Тренування Альфа
Серія 13. Непроханий гість
Серія 14. Близька перемога
Серія 15. Вперед, роботи-поїзди!
Серія 16. Фестиваль
Серія 17. Пробудження Дюка
Серія 18. Тримайся, Кей
Серія 19. Приїзд Віктора
Серія 20. Віктор повернувся
Серія 21. Секрет альфа-поїзда
Серія 22. Дюк говорить те, що думає
Серія 23. Кей та Дюк
Серія 24. Незвичайна тренування Кея
Серія 25. Тимчасової тунель
Серія 26. Інший світ
Серія 27. Віктор у небезпеці
Серія 28. Один за всіх і всі за одного
Серія 29. Дружба похитнулася
Серія 30. Напад вірусу
Серія 31. Світ поїздів у небезпеці
Серія 32. У новий світ
Про файл:
General
Unique ID : 306295323479667214161238716210496071750 (0xE66E55625276E2E6CBE65AD2A362E846)
Complete name : D:\Documents\Torrents\MULTSER_2\Robot Trains S01 720p \S01E01.The Adventure Begins.720p..
Format :
Format version : Version 4
File size : 202 MiB
Duration : 14 min 11 s
Overall bit rate : 1 992 kb/s
Movie name : Robot Trains S01 by sergiyko
Encoded date : UTC 2020-05-31 22:08:51
Writing application : v47.0.0 ('Black Flag') 64-bit
Writing library : libebml v1.3.10 + v1.5.2

Video
ID : 1
Format : AVC
Format/Info : Advanced Video Codec
Format profile : [email protected]
Format settings : CABAC / 3 Ref Frames
Format settings, CABAC : Yes
Format settings, Reference : 3 frames
Codec ID : V_MPEG4/ISO/AVC
Duration : 14 min 11 s
Bit rate : 1 800 kb/s
Width : 1 280 pixels
Height : 718 pixels
Display aspect ratio : 16:9
Frame rate mode : Constant
Frame rate : 25.000 FPS
Color space : YUV
Chroma subsampling : 4:2:0
Bit depth : 8 bits
Scan type : Progressive
Bits/(Pixel*Frame) : 0.078
Stream size : 183 MiB (90%)
Language : English
Default : Yes
Forced : No

Audio
ID : 2
Format : LC
Format/Info : Advanced Audio Codec Low Complexity
Codec ID : A_AAC-2
Duration : 14 min 11 s
Bit rate : 192 kb/s
Channel(s) : 2 channels
Channel layout : L R
Sampling rate : 44.1 kHz
Frame rate : 43.066 FPS (1024 SPF)
Compression mode : Lossy
Stream size : 19.2 MiB (10%)
Language : Ukrainian
Default : Yes
Forced : No
Скріншоти:


Запис: sergiyko


Бронзовий реліз (на рейтинг впливає 75% завантаженого)
 Трекер:    Зареєстрований   

Завантажити / скачати мультфільм українською



відео для новачків



 Зареєстрований:   2020-06-01 01:43
 Розмір:   6.31 GB 
 Оцінка мультсеріалу:   10/10 (Голосів: 4)
   
Ваш часовий пояс: GMT + 2 Години

Нова тема   Відповісти