Чемпіонат України 2019-2020 / Прем'єр Ліга / 24-й тур / Шахтар (Донецьк) - Динамо (Київ) / Футбол 1 (31.05.2020) HDTV 1080p

Нові коментарі

Нова тема   Відповісти
Останній раз роздавалося antik_2008 (2020-09-29)
Автор Повідомлення
Anonymous 







2020-05-31 21:44  
Чемпіонат України 2019-2020 / 24-й тур / Шахтар (Донецьк) - Динамо (Київ) / Футбол 1 (31.05.2020) HDTV 1080p



Телеканал: Футбол 1 HD
Опис: Чемпіонат України 2019-2020 / 24-й тур / Шахтар (Донецьк) - Динамо (Київ)
Тривалість:
01:50:21
Якість: HDTV 1080p

Відео:
кодек:
розмір кадру: 1920x1080
бітрейт: ~4300 кб/с

Аудіо:
мова: українська
переклад: одноголосий закадровий (Круторогов)
кодек: 2.0
бітрейт: 192 кб/с
Склади:









Info
General
Complete name : Shakhtar Donetsk_Dynamo Kyiv (31.05.2020) HDTV 1080 Ukr.ts
Format : MPEG-TS
File size : 3.65 GiB
Duration : 1 h 50 min
Overall bit rate mode : Variable
Overall bit rate : 4 737 kb/s

Video
ID : 141 (0x8D)
Menu ID : 2914 (0xB62)
Format : AVC
Format/Info : Advanced Video Codec
Format profile : [email protected]
Format settings : CABAC / 4 Ref Frames
Format settings, CABAC : Yes
Format settings, RefFrames : 4 frames
Codec ID : 27
Duration : 1 h 50 min
Bit rate : 4 309 kb/s
Width : 1 920 pixels
Height : 1 080 pixels
Display aspect ratio : 16:9
Frame rate : 25.000 FPS
Standard : Component
Color space : YUV
Chroma subsampling : 4:2:0
Bit depth : 8 bits
Scan type : MBAFF
Scan type, store method : Interleaved fields
Scan order : Top Field First
Bits/(Pixel*Frame) : 0.083
Stream size : 3.32 GiB (91%)
Color range : Limited
Color primaries : BT.709
Transfer characteristics : BT.709
Matrix coefficients : BT.709

Audio
ID : 142 (0x8E)
Menu ID : 2914 (0xB62)
Format : MPEG Audio
Format version : Version 1
Format profile : Layer 2
Codec ID : 3
Duration : 1 h 50 min
Bit rate mode : Constant
Bit rate : 192 kb/s
Channel(s) : 2 channels
Sampling rate : 48.0 kHz
Frame rate : 41.667 FPS (1152 SPF)
Compression mode : Lossy
Delay relative to video : -80 ms
Stream size : 152 MiB (4%)
Language : Ukrainian
Скріншоти




Подяка за допомогу у створенні релізу : rgfootball
Особиста оцінка: 4 - погане кіно


Золотий реліз (завантажене не впливає на рейтинг)
 Трекер:    Зареєстрований   

Завантажити / скачати торрент



відео для новачків



 Зареєстрований:   2020-05-31 21:44
 Розмір:   3.65 GB 
 Оцінка:   9.3/10 (Голосів: 4)
   
Ваш часовий пояс: GMT + 2 Години

Нова тема   Відповісти