Коко / Coco (2017) UHD Remux 2160p 4K HDR H.265 Ukr/Eng | Sub Eng

Нові коментарі

Нова тема   Відповісти
Автор Повідомлення
Argentum 
VIP


З нами з: 25.09.11
Востаннє: 23.11.20
Повідомлень: 262

2020-05-31 18:56  
Коко / Coco (2017) UHD Remux 2160p 4K HDR H.265 Ukr/Eng | Sub Eng

Коко / Coco (2017) UHD Remux 2160p 4K HDR H.265 Ukr/Eng | Sub Eng


Жанр: анімація, сімейний, комедія, пригодницький
Країна: США



Кінокомпанія: Walt Disney Pictures, Pixar Animation Studios
Режисер: Лі Анкріч, Едріан Моліна
Актори: Ентоні Гонсалес, Ґаель Ґарсіа Берналь, Бенджамін Бретт, Рені Віктор, Аланна Юбак, Хайме Каміль, Гебріел Іглесіас, Альфонсо Арау, Херберт Сіґенса, Едвард Джеймс Олмос та інші

Сюжет:
Мігель живе в мексиканському селі в родині шевців і дуже хоче стати музикантом. Щоб здійснити мрію, хлопець має розгадати давню таємницю свого роду, заховану у Країні Мертвих. Отож, взявши в напарники скелета-провідника та дивакуватого пса Данте, Мігель вирушає в потойбіччя…


Тривалість: 01:45:02
Якість: UHD Remux
Відео:
кодек: H.265 (HEVC)
розмір кадру: 3840 х 2160
бітрейт: 46.1 Mб/с
бітова глибина: 10 біт
кольоровий простір: BT.2020 (HDR)

Увага! Перед завантаженням переконайтесь, що ваш пристрій відтворення (та/або ПЗ) підтримує H.265 (HEVC)

Аудіо # 1:
мова: українська
переклад: професійний дубльований | студія LeDoyen
кодек: -HD MA 5.1
бітрейт: 3799 кб/с
Інформація про дубляж
Фільм дубльовано студією «Le Doyen» на замовлення компанії «Disney Character Voices International» у 2017 році.

Режисер дубляжу — Анна Пащенко
Перекладач тексту та пісень — Роман Кисельов
Музичний керівник — Тетяна Піроженко
Творчий консультант — Magdalena Dziemidowicz

Ролі озвучували:
Міґель — Ярослав Рогальський
Ектор — Валерій Величко
Ернесто де ла Круз — Михайло Кришталь
Мама Імельда — Лідія Муращенко
Бабуся — Наталя Надірадзе
Коко — Ірина Дорошенко
Дідо Хуліо — Євген Шах
Дядько Оскар — Дмитро Вікулов
Дядько Феліпе — Андрій Альохін
Тітка Росіта — Руслана Хазіпова
Тітка Вікторія — Соломія Мельник
Тато — Михайло Войчук
Мама — Валентина Хамайко
Службовець — Дмитро Завадський
Вуличний музикант Маріачі — Юрій Ткач
Ґуставо — Дмитро Вікулов
Фріда Кало — Наталя Ярошенко
Чичерон — Василь Мазур
Прикордонниця — Катерина Башкіна-Зленко
Дядько Берто / Дон Ідальго / Поліцейський — Сергій Солопай
Ведуча — Олена Узлюк
Охоронець — Сергій Кияшко
Митник — Дмитро Рассказов-Тварковський
Зубатий скелет — Володимир Канівець


А також: Максим Кондратюк, Марія Нікітенко, Євген Сардаров, Марія Єременко, Тетяна Піроженко, Євген Анішко, Єлизавета Сморигіна, Олексій Сморигін, Олена Колеснікова, Катерина Качан, Сергій Юрченко, Микола Карцев, Лариса Уманцева, Вікторія Москаленко, Вероніка Дорош, Володимир Трач

"Згадай мене (Ернесто де ла Круз)" — Михайло Кришталь
"Я вам опишу Хуаніту" — Валерій Величко
"Остаточний локо" — Ярослав Рогальський, Валерій Величко
"Йорона (а капела)" — Лідія Муращенко
"Немов удома" — Ярослав Рогальський
"Згадай мене (Ектор і мала Коко)" — Валерій Величко, Єлизавета Сморигіна
"Йорона" — Лідія Муращенко, Михайло Кришталь
"Згадай мене (Міґель і Коко)" — Ярослав Рогальський, Ірина Дорошенко
"Моє корасон" — Ярослав Рогальський
Аудіо # 2:
мова: українська
переклад: професійний дубльований
кодек: 5.1
бітрейт: 640 кб/с

Аудіо # 3:
мова: англійська
переклад: оригінал
кодек: -HD MA 7.1
бітрейт: 4478 кб/с

Аудіо # 4:
мова: англійська
переклад: оригінал
кодек: 5.1
бітрейт: 640 кб/с

Субтитри 1: (форсовані)
мова: українська
тип: програмні (м'які)
формат: *.srt

Субтитри 2:
мова: англійська
тип: програмні (м'які)
формат: *.srt
Info
General
Unique ID : 256370266762237329563378165686526466488 (0xC0DF1E0B5B6295D5A446EB378D32D9B8)
Complete name : Coco.2017.Remux.2160p.Ukr.Eng.Hurtom.
Format :
Format version : Version 4
File size : 40.8 GiB
Duration : 1 h 45 min
Overall bit rate mode : Variable
Overall bit rate : 55.7 Mb/s
Movie name : Coco (2017)
Encoded date : UTC 2020-05-31 12:29:51
Writing application : v47.0.0 ('Black Flag') 64-bit
Writing library : libebml v1.3.10 + v1.5.2
Cover : Yes
Attachments : cover.jpg

Video
ID : 1
Format : HEVC
Format/Info : High Efficiency Video Coding
Format profile : Main [email protected]@High
HDR format : SMPTE ST 2086, HDR10 compatible
Codec ID : V_MPEGH/ISO/HEVC
Duration : 1 h 45 min
Bit rate : 46.1 Mb/s
Width : 3 840 pixels
Height : 2 160 pixels
Display aspect ratio : 16:9
Frame rate mode : Constant
Frame rate : 23.976 (24000/1001) FPS
Color space : YUV
Chroma subsampling : 4:2:0 (Type 2)
Bit depth : 10 bits
Bits/(Pixel*Frame) : 0.232
Stream size : 33.8 GiB (83%)
Title : HEVC 3840*2160 HDR10 @ 46.1 Mb/s
Writing library : ATEME Titan File 3.8.12 (4.8.12.0)
Language : Multiple languages
Default : Yes
Forced : Yes
Color range : Limited
Color primaries : BT.2020
Transfer characteristics : PQ
Matrix coefficients : BT.2020 non-constant
Mastering display color pri : Display P3
Mastering display luminance : min: 0.0000 cd/m2, max: 1000 cd/m2

Audio #1
ID : 2
Format : XLL
Format/Info : Digital Theater Systems
Commercial name : -HD Master Audio
Codec ID : A_DTS
Duration : 1 h 45 min
Bit rate mode : Variable
Bit rate : 3 799 kb/s
Channel(s) : 6 channels
Channel layout : C L R Ls Rs LFE
Sampling rate : 48.0 kHz
Frame rate : 93.750 FPS (512 SPF)
Bit depth : 24 bits
Compression mode : Lossless
Delay relative to video : 3 ms
Stream size : 2.79 GiB (7%)
Title : -HD MA 5.1 @ 3 799 kb/s
Language : Ukrainian
Default : Yes
Forced : Yes

Audio #2
ID : 3
Format : AC-3
Format/Info : Audio Coding 3
Commercial name : Dolby Digital
Codec ID : A_AC3
Duration : 1 h 45 min
Bit rate mode : Constant
Bit rate : 640 kb/s
Channel(s) : 6 channels
Channel layout : L R C LFE Ls Rs
Sampling rate : 48.0 kHz
Frame rate : 31.250 FPS (1536 SPF)
Compression mode : Lossy
Delay relative to video : 24 ms
Stream size : 481 MiB (1%)
Title : AC-3 5.1 @ 640 kb/s
Language : Ukrainian
Service kind : Complete Main
Default : No
Forced : No

Audio #3
ID : 4
Format : XLL
Format/Info : Digital Theater Systems
Commercial name : -HD Master Audio
Codec ID : A_DTS
Duration : 1 h 45 min
Bit rate mode : Variable
Bit rate : 4 479 kb/s
Channel(s) : 8 channels
Channel layout : C L R LFE Lb Rb Lss Rss
Sampling rate : 48.0 kHz
Frame rate : 93.750 FPS (512 SPF)
Bit depth : 24 bits
Compression mode : Lossless
Delay relative to video : 3 ms
Stream size : 3.29 GiB (8%)
Title : -HD MA 7.1 @ 4 478 kb/s
Language : English
Default : No
Forced : No

Audio #4
ID : 5
Format : AC-3
Format/Info : Audio Coding 3
Commercial name : Dolby Digital
Codec ID : A_AC3
Duration : 1 h 45 min
Bit rate mode : Constant
Bit rate : 640 kb/s
Channel(s) : 6 channels
Channel layout : L R C LFE Ls Rs
Sampling rate : 48.0 kHz
Frame rate : 31.250 FPS (1536 SPF)
Compression mode : Lossy
Delay relative to video : 24 ms
Stream size : 481 MiB (1%)
Title : AC-3 5.1 @ 640 kb/s
Language : English
Service kind : Complete Main
Default : No
Forced : No

Text #1
ID : 6
Format : UTF-8
Codec ID : S_TEXT/UTF8
Codec ID/Info : UTF-8 Plain Text
Duration : 1 h 28 min
Bit rate : 0 b/s
Count of elements : 10
Stream size : 261 Bytes (0%)
Title : Forced
Language : Ukrainian
Default : Yes
Forced : Yes

Text #2
ID : 7
Format : UTF-8
Codec ID : S_TEXT/UTF8
Codec ID/Info : UTF-8 Plain Text
Duration : 1 h 37 min
Bit rate : 63 b/s
Count of elements : 1441
Stream size : 45.6 KiB (0%)
Title : Full
Language : English
Default : No
Forced : No

Menu
00:00:00.000 : en:Chapter 1
00:06:40.191 : en:Chapter 2
00:08:41.520 : en:Chapter 3
00:11:13.589 : en:Chapter 4
00:14:20.317 : en:Chapter 5
00:17:06.942 : en:Chapter 6
00:18:20.933 : en:Chapter 7
00:22:05.991 : en:Chapter 8
00:24:19.958 : en:Chapter 9
00:27:44.829 : en:Chapter 10
00:29:07.912 : en:Chapter 11
00:32:15.308 : en:Chapter 12
00:35:18.407 : en:Chapter 13
00:41:25.524 : en:Chapter 14
00:47:04.696 : en:Chapter 15
00:50:54.175 : en:Chapter 16
00:54:23.885 : en:Chapter 17
00:56:45.026 : en:Chapter 18
01:01:42.615 : en:Chapter 19
01:03:28.137 : en:Chapter 20
01:08:58.217 : en:Chapter 21
01:15:17.262 : en:Chapter 22
01:18:56.773 : en:Chapter 23
01:21:31.761 : en:Chapter 24
01:24:31.816 : en:Chapter 25
01:28:23.464 : en:Chapter 26
01:33:14.755 : en:Chapter 27
01:36:10.472 : en:Chapter 28
Скріншоти







Джерело:
Особиста оцінка: 8 - мені сподобалося


Золотий реліз (завантажене не впливає на рейтинг)
 Трекер:    Зареєстрований   

Завантажити / скачати мультфільм українською



відео для новачків



 Зареєстрований:   2020-05-31 19:15
 Розмір:   40.85 GB 
 Оцінка мультфільму:   9.3/10 (Голосів: 17)
   
Інші релізи
   Коко / Coco (2017) Jatx_11  29 / 0   1.46 GB   2020-03-28 18:57 
   Коко / Coco (2017) 1080p H.265 Ukr/Eng | Sub Eng -Star-Lord-  23 / 0   5.48 GB   2019-11-20 10:19 
   Коко на всі 100 / 100% Coco (2017) Ukr/Ger drop_plz  3 / 0   1.44 GB   2019-11-16 12:41 
   Коко / Coco (2017) Remux 1080p Ukr/Eng | Sub Eng staf777  13 / 0   24.85 GB   2018-05-06 18:40 
   Коко / Coco (2017) 1080p Ukr/Eng | Sub Eng Electroz  30 / 0   9.47 GB   2018-05-06 11:03 
   Коко / Coco (2017) 720p Ukr/Eng | Sub Eng 11FrYkT  20 / 0   6.38 GB   2018-05-06 09:49 
   Коко / Coco (2017) AVC Ukr/Eng | Sub Eng 11FrYkT  64 / 0   2.07 GB   2018-05-06 09:45 
   Коко / Coco (2017) Ukr/Eng 11FrYkT  21 / 0   2.18 GB   2018-05-06 09:39 
   Коко / Coco (2017) 720p (60 fps) Ukr/Eng | Sub Eng Drool  6 / 0   4.24 GB   2018-04-17 14:04 
bot 
робот


З нами з: 30.09.07
Востаннє: 26.05.05
Повідомлень: 26344

2020-05-31 18:56  
Тему перенесено з Фільми в HD до форуму Анонси релізів


Argentum

bot 
робот


З нами з: 30.09.07
Востаннє: 26.05.05
Повідомлень: 26344

2020-05-31 19:14  
Тему перенесено з Анонси релізів до форуму Мультфільми в HD


Argentum

YurOK_88 
Новенький


З нами з: 26.09.18
Востаннє: 01.11.20
Повідомлень: 14

2020-06-08 11:53  
Дуже хороший мультфільм, і дорослим піде на користь
ipssdd 
Новенький


З нами з: 26.04.12
Востаннє: 19.11.20
Повідомлень: 5

2020-10-04 08:00  
Привіт! Станьте на роздачу хтось пліззз!!!
Ваш часовий пояс: GMT + 2 Години

Нова тема   Відповісти