Дама зникає / The Lady Vanishes (1938) Ukr/Eng

Нові коментарі

Нова тема   Відповісти
Автор Повідомлення
Цікава ідея 
VIP


З нами з: 26.12.11
Востаннє: 11.07.20
Повідомлень: 516

2020-05-31 15:01  
| AVC | 1080p

Дама зникає / The Lady Vanishes (1938) Ukr/Eng


Дама зникає / The Lady Vanishes (1938) Ukr/Eng


Жанр: комедія, трилер, детектив
Країна: Велика Британія



Режисери: Альфред Гічкок
Актори: Маргарет Локвуд, Майкл Редгрейв, Пол Лукас, Мей Вітт, Сесіл Паркер, Лінден Треверс, Нонтон Уейн, Безіл Редфорд, Мері Клер, Еміль Борео та інші

Сюжет:
Дія фільму відбувається напередодні другої Світової Війни. У поїзді, що їде з Тіроля в Лондон, загадковим чином зникає немолода дама. Її попутниця починає розслідувати цю подію разом з молодою людиною. Поступово вони, разом з іншими пасажирами, виявляються втягнутими в шпигунську інтригу.


Перекладено та озвучено ТО "Цікава Ідея" на замовлення NemoInFire


Тривалість: 01:36:00
Якість: ВDRip

Відео:
кодек:
розмір кадру: 704 x 528
бітрейт: 1 748 кб/с

Аудіо # 1:
мова: українська | "Цікава Ідея"
переклад: професійний багатоголосий закадровий
кодек: 2.0
бітрейт: 192 кб/с

Аудіо # 2:
мова: англійська
переклад: оригінал
кодек: 1.0
бітрейт: 224 кб/с
Info
Код:
Format                      : AVI
Format/Info                 : Audio Video Interleave
Format profile              : OpenDML
File size                   : 1.47 GiB
Duration                    : 1 h 36 min
Overall bit rate            : 2 186 kb/s
Movie name                  : Дама зникає / The Lady Vanishes (1938) AVC [Ukr,Eng] [Цікава Ідея]
Writing application         : Lavf58.20.100

Video
ID                          : 0
Format                      : MPEG-4 Visual
Format profile              : Advanced [email protected]
Format settings             : BVOP1
Format settings, BVOP       : 1
Format settings, QPel       : No
Format settings, GMC        : No warppoints
Format settings, Matrix     : Default (H.263)
Codec ID                    :
Codec ID/Hint               :
Duration                    : 1 h 36 min
Bit rate                    : 1 748 kb/s
Width                       : 704 pixels
Height                      : 528 pixels
Display aspect ratio        : 4:3
Frame rate                  : 23.976 (24000/1001) FPS
Color space                 : YUV
Chroma subsampling          : 4:2:0
Bit depth                   : 8 bits
Scan type                   : Progressive
Compression mode            : Lossy
Bits/(Pixel*Frame)          : 0.196
Stream size                 : 1.18 GiB (80%)
Title                       : The.Lady.Vanishes.1938..AVC
Writing library             : 67

Audio #1
ID                          : 1
Format                      : AC-3
Format/Info                 : Audio Coding 3
Commercial name             : Dolby Digital
Codec ID                    : 2000
Duration                    : 1 h 36 min
Bit rate mode               : Constant
Bit rate                    : 192 kb/s
Channel(s)                  : 2 channels
Channel layout              : L R
Sampling rate               : 48.0 kHz
Frame rate                  : 31.250 FPS (1536 SPF)
Bit depth                   : 16 bits
Compression mode            : Lossy
Stream size                 : 132 MiB (9%)
Alignment                   : Aligned on interleaves
Interleave, duration        : 32  ms (0.77 video frame)
Title                       : Українська
Service kind                : Complete Main

Audio #2
ID                          : 2
Format                      : LC
Format/Info                 : Advanced Audio Codec Low Complexity
Format version              : Version 4
Muxing mode                 : ADTS
Codec ID                    : FF-2
Duration                    : 1 h 36 min
Bit rate                    : 224 kb/s
Channel(s)                  : 1 channel
Channel layout              : C
Sampling rate               : 48.0 kHz
Frame rate                  : 46.875 FPS (1024 SPF)
Compression mode            : Lossy
Stream size                 : 154 MiB (10%)
Alignment                   : Aligned on interleaves
Interleave, duration        : 21  ms (0.51 video frame)
Скріншоти



Перекладено та озвучено творчим об'єднанням:
Ролі озвучили: Семен Птаха, Юлія Малахова, Олексій Сафін, Ганна Квочкіна, Євген Малуха та Матвій Ніколаєв
Подяка за ріпи в avi: antik_2008


Авторський реліз (завантажувати можна без реєстрації)
 Трекер:    Зареєстрований   

Завантажити / скачати фільм українською



відео для новачків



 Зареєстрований:   2020-05-31 15:01
 Розмір:   1.47 GB 
 Оцінка фільму:   9.6/10 (Голосів: 7)
   
Інші релізи
Ваш часовий пояс: GMT + 2 Години

Нова тема   Відповісти