Скубі-Ду: Містична корпорація / Скубі-Ду: корпорація Загадка / Scooby-Doo! Mystery Incorporated (Сезон 2) (2013) 1080p Ukr/Eng

Нові коментарі

Нова тема   Відповісти
Автор Повідомлення
sergiyko.5 
Забанено
Забанено


З нами з: 25.02.16
Востаннє: 29.10.20
Повідомлень: 3648

2020-05-31 14:53  
Скубі-Ду: Містична корпорація / Скубі-Ду: корпорація Загадка / Scooby-Doo! Mystery Incorporated (Сезон 2) (2013) 1080p Ukr/Eng


Скубі-Ду: Містична корпорація / Скубі-Ду: корпорація Загадка / Scooby-Doo! Mystery Incorporated (Сезон 2) (2013) 1080p Ukr/Eng

Жанр: анімація, пригодницький
Країна: США
Кінокомпанія: Warner Bros.
Режисер: Віктор Кук, Курт Геда

Сюжет:
Скубі-Ду і його команда - Шеггі, Фред, Дафна і Велма намагаються розгадати таємниці міста Кришталева Печера, міста зі свєю історією, повною страшних надприродних подій.




Тривалість: 1 серія: 00:22:47 (цілком серій: 26 з 26)
Якість:

Відео: кодек: розмір кадру: 1920 х 1080 бітрейт: 5000 кб/с
Аудіо #1: мова: українська переклад: багатоголосий закадровий кодек: 2.0 бітрейт: 192 кб/с
Oзвучення: ICTV
Аудіо #2: мова: англійська переклад: оригінал кодек: 2.0 бітрейт: 192 кб/с

Примітка: в епізодах 4,6,11,20 запис без початкових 49 секунд озвучки, епізод 2 без 3 хвилин, вставлено звук оригінальної доріжки.
Перелік серій
01. Ніч, коли плакав клоун / The Night The Clown Cried
02. Дім відьми з нічного жахіття / House of The Nightmare Witch
03. Ніч, коли плакав клоун 2 - Фатальні сльози / The Night The Clown Cried II — Tears of Doom
04. Сіть Павука Снів / Web Of The Dreamweaver
05. Жахливий Ходаг / The Hodag of Horror
06. Мистецтво темряви / Art of Darkness
07. Морок, який згущається / The Gathering Gloom
08. Ніч на Горі привидів / Night on Haunted Mountain
09. Жорстоке покарання / Grim Judgement
10. Ніч кошмару / Night Terrors
11. Опівнічна зона / The Midnight Zone
12. Жахливий ведмідь / Scarebear
13. Гнів Крампуса / Wrath of the Krampus
14. Серце лиха / Heart of evil
15. Театр жаху / Theater of doom
16. Прибульці серед нас / Aliens Among Us
17. Моторошне стадо / The Horrible Herd
18. Танці живих мерців / Dance Of The Undead
19. Пожирання / The Devouring
20. Гаманець або життя / Stand And Deliver
21. Чоловік у дзеркалі / The Man In The Mirror
22. Кошмар у червоному / Nightmare Is Red
23. Темна ніч мисливців / Dark Night Of Hunters
24. Ворота мороку / Gates Of Gloom
25. Крізь завісу / Through the Curtain
26. Все шкереберть / Come Undone
Про файл:
General
Unique ID : 44346576294932511831351454128464305149 (0x215CD7051C8FDA0342A4953344F19BFD)
Complete name : D:\Documents\Torrents\MULTSER_2\Scooby-Doo! Mystery Incorporated S02 1080p \S02E01.The Night the Clown Cried.1080p..
Format :
Format version : Version 4
File size : 874 MiB
Duration : 22 min 46 s
Overall bit rate : 5 363 kb/s
Movie name : Scooby-Doo! Mystery Incorporated S02 by sergiyko
Encoded date : UTC 2020-05-29 22:49:35
Writing application : v46.0.0 ('No Deeper Escape') 64-bit
Writing library : libebml v1.3.10 + v1.5.2

Video
ID : 1
Format : AVC
Format/Info : Advanced Video Codec
Format profile : [email protected]
Format settings : CABAC / 4 Ref Frames
Format settings, CABAC : Yes
Format settings, Reference : 4 frames
Codec ID : V_MPEG4/ISO/AVC
Duration : 22 min 46 s
Bit rate : 4 977 kb/s
Width : 1 920 pixels
Height : 1 080 pixels
Display aspect ratio : 16:9
Frame rate mode : Constant
Frame rate : 23.976 (23976/1000) FPS
Color space : YUV
Chroma subsampling : 4:2:0
Bit depth : 8 bits
Scan type : Progressive
Bits/(Pixel*Frame) : 0.100
Stream size : 811 MiB (93%)
Title : S02E01.The Night the Clown Cried
Language : English
Default : Yes
Forced : No
Color range : Limited
Color primaries : BT.709
Transfer characteristics : BT.709
Matrix coefficients : BT.709

Audio #1
ID : 2
Format : AC-3
Format/Info : Audio Coding 3
Commercial name : Dolby Digital
Codec ID : A_AC3
Duration : 22 min 46 s
Bit rate mode : Constant
Bit rate : 192 kb/s
Channel(s) : 2 channels
Channel layout : L R
Sampling rate : 48.0 kHz
Frame rate : 31.250 FPS (1536 SPF)
Compression mode : Lossy
Stream size : 31.3 MiB (4%)
Title : MOV 2ch | ICTV
Language : Ukrainian
Service kind : Complete Main
Default : Yes
Forced : Yes

Audio #2
ID : 3
Format : AC-3
Format/Info : Audio Coding 3
Commercial name : Dolby Digital
Codec ID : A_AC3
Duration : 22 min 46 s
Bit rate mode : Constant
Bit rate : 192 kb/s
Channel(s) : 2 channels
Channel layout : L R
Sampling rate : 48.0 kHz
Frame rate : 31.250 FPS (1536 SPF)
Compression mode : Lossy
Stream size : 31.3 MiB (4%)
Title : Original
Language : English
Service kind : Complete Main
Default : No
Forced : No
Скріншоти:


Запис: aaa4523
Зведення: sergiyko


Бронзовий реліз (на рейтинг впливає 75% завантаженого)
 Трекер:    Зареєстрований   

Завантажити / скачати мультфільм українською



відео для новачків



 Зареєстрований:   2020-05-31 14:53
 Розмір:   22.51 GB 
 Оцінка мультсеріалу:   9.4/10 (Голосів: 7)
   
Князь` 
Новенький


З нами з: 02.04.19
Востаннє: 14.04.21
Повідомлень: 9

2020-09-30 21:23  
Нічого собі! Я вже й не сподівався, що цей мультик колись вийде рідною солов'їною. Піду швидше вантажити! Величезна подяка!
Darkseid02 
Новенький


З нами з: 20.06.20
Востаннє: 14.04.21
Повідомлень: 10

2020-10-12 19:39  
Хтось з нормальним інетом станьте будь-ласка на роздачу
Okraila 
Свій


З нами з: 04.11.20
Востаннє: 15.04.21
Повідомлень: 59

2020-11-07 11:56  
Вибачте, можете дещо підказати? Я перекладаю серіал "Скубі-Ду і Вгадай Хто", хочу виставити сюди, та я новенький на толоці. Як ви зробили так, що у вашому релізі можна завантажити декілька файлів? Бо я ще не навчився, і коли виставляв серіал "Будь Крутим Скубі Ду", довелося робити окремі релізи для першої серії - https://toloka.to/t115884 і для восьмої - https://toloka.to/t115888
Ваш часовий пояс: GMT + 2 Години

Нова тема   Відповісти