Космічні сили (Сезон 1) / Space Force (Season 1) (2020) Ukr/Eng

Нові коментарі

Нова тема   Відповісти
Автор Повідомлення
Цікава ідея 
VIP


З нами з: 26.12.11
Востаннє: 10.07.20
Повідомлень: 516

2020-05-31 14:53  
| AVC | 1080p

Космічні сили (Сезон 1) / Space Force (Season 1) (2020) Ukr/Eng


Космічні сили (Сезон 1) / Space Force (Season 1) (2020) Ukr/Eng


Якщо вам сподобалося озвучення серіалу,
то ви можете підтримати нас за посиланням
ТИЦЬ


Жанр: комедія
Країна: США



Кінокомпанія / телеканал: 3 Arts Entertainment, Netflix
Режисери: Грег Даніелс, Стів Керрелл
Актори: Стів Карелл, Оуен Даніелс, Ной Еммеріх, Джон Малкович, Ліза Кудроу та інші.

Сюжет:
У центрі історії виявиться команда фахівців, яким якраз і доручено створити новий вид збройних сил для проведення різних операцій в космічній сфері..


Перекладено та озвучено ТО "Цікава Ідея" за підтримки fishMD


Український трейлер в нашому озвученні.



Тривалість: 1 серія: ~ 30 хв. (цілком серій: 10)
Перелік серій:

01. The Launch
02. Save Epsilon 6!
03. Mark and Mallory Go to Washington
04. Lunar Habitat
05. Space Flag
06. The Spy
07. Edison Jaymes
08. Conjugal Visit
09. It's Good to Be Back on the Moon
10. Proportionate Response
Якість:
Відео:
кодек:
розмір кадру: 704 x 320
бітрейт: ~ 1660 кб/с

Аудіо # 1:
мова: українська | "Цікава Ідея"
переклад: професійний багатоголосий закадровий
кодек: 5.1
бітрейт: 448 кб/с

Аудіо # 2:
мова: англійська
переклад: оригінал
кодек: 5.1
бітрейт: 448 кб/с
Info
Код:
Format                      : AVI
Format/Info                 : Audio Video Interleave
File size                   : 674 MiB
Duration                    : 36 min 38 s
Overall bit rate            : 2 572 kb/s
Movie name                  : Космічні сили / Space Force - S01E01 (2020) 1080p [Ukr.Eng] [Цікава Ідея]
Writing application         : Lavf58.20.100

Video
ID                          : 0
Format                      : MPEG-4 Visual
Format profile              : Advanced [email protected]
Format settings             : BVOP1
Format settings, BVOP       : 1
Format settings, QPel       : No
Format settings, GMC        : No warppoints
Format settings, Matrix     : Default (H.263)
Codec ID                    :
Codec ID/Hint               :
Duration                    : 36 min 38 s
Bit rate                    : 1 660 kb/s
Width                       : 704 pixels
Height                      : 320 pixels
Display aspect ratio        : 2.2:1
Frame rate                  : 23.976 (24000/1001) FPS
Color space                 : YUV
Chroma subsampling          : 4:2:0
Bit depth                   : 8 bits
Scan type                   : Progressive
Compression mode            : Lossy
Bits/(Pixel*Frame)          : 0.307
Stream size                 : 435 MiB (65%)
Writing library             : 67

Audio #1
ID                          : 1
Format                      : AC-3
Format/Info                 : Audio Coding 3
Commercial name             : Dolby Digital
Codec ID                    : 2000
Duration                    : 36 min 38 s
Bit rate mode               : Constant
Bit rate                    : 448 kb/s
Channel(s)                  : 6 channels
Channel layout              : L R C LFE Ls Rs
Sampling rate               : 48.0 kHz
Frame rate                  : 31.250 FPS (1536 SPF)
Bit depth                   : 16 bits
Compression mode            : Lossy
Stream size                 : 117 MiB (17%)
Alignment                   : Aligned on interleaves
Interleave, duration        : 32  ms (0.77 video frame)
Title                       : Українська
Service kind                : Complete Main

Audio #2
ID                          : 2
Format                      : AC-3
Format/Info                 : Audio Coding 3
Commercial name             : Dolby Digital
Codec ID                    : 2000
Duration                    : 36 min 38 s
Bit rate mode               : Constant
Bit rate                    : 448 kb/s
Channel(s)                  : 6 channels
Channel layout              : L R C LFE Ls Rs
Sampling rate               : 48.0 kHz
Frame rate                  : 31.250 FPS (1536 SPF)
Bit depth                   : 16 bits
Compression mode            : Lossy
Stream size                 : 117 MiB (17%)
Alignment                   : Aligned on interleaves
Interleave, duration        : 32  ms (0.77 video frame)
Title                       : English
Service kind                : Complete Main
Скріншоти



Озвучено творчим об'єднанням:
Переклад: Федір Сидорук.
Ролі озвучили: Семен Птаха, Юлія Малахова, Матвій Ніколаєв, Євген Малуха, Андрій Корзаченко та Олексій Сафін.
Подяка за ріпи в avi: antik_2008


Авторський реліз (завантажувати можна без реєстрації)
 Трекер:    Зареєстрований   

Завантажити / скачати серіал українською



відео для новачків



 Зареєстрований:   2020-06-17 10:23
 Розмір:   6.42 GB 
 Оцінка серіалу:   9.2/10 (Голосів: 39)
 Переклали та озвучили 6-10 серії. Фінал сезону!
   
Цікава ідея 
VIP


З нами з: 26.12.11
Востаннє: 10.07.20
Повідомлень: 516

2020-06-03 12:09  
Друзі, ми переклали та озвучили 1-3 серії!

Бажаємо приємного перегляду.

Цікава ідея 
VIP


З нами з: 26.12.11
Востаннє: 10.07.20
Повідомлень: 516

2020-06-05 17:36  
Друзі, ми переклали та озвучили 4 серію!

Бажаємо приємного перегляду.

DeWitt_1912 
Свій


З нами з: 13.09.16
Востаннє: 09.07.20
Повідомлень: 127

2020-06-06 14:19  
Трейлер наче нічого, теоретично має бути смішний серіал, але від слова Netflix мене аж пересмикнуло. Дивився вже хто? Які враження?
OSTAFIA 
Новенький


З нами з: 11.11.17
Востаннє: 10.07.20
Повідомлень: 3

2020-06-06 20:24  
Нічого супер особливого не побачив.
Звичайна комедія.

Цікава ідея 
VIP


З нами з: 26.12.11
Востаннє: 10.07.20
Повідомлень: 516

2020-06-07 03:23  
Друзі, ми переклали та озвучили 5 серію!

Бажаємо приємного перегляду!

Цікава ідея 
VIP


З нами з: 26.12.11
Востаннє: 10.07.20
Повідомлень: 516

2020-06-17 10:24  
Друзі, ми переклали та озвучили 6-10 серії! Фінал сезону.

Бажаємо приємного перегляду.

elephant1k 
Свій


З нами з: 04.05.16
Востаннє: 11.07.20
Повідомлень: 67

2020-06-17 20:15  
У кінцевому підсумку, серiал - лажа. Шкода. Переклад супер.
Rgonzo 
Новенький


З нами з: 12.04.12
Востаннє: 09.07.20
Повідомлень: 3

2020-06-20 21:51  
Якесь таке геть не смішне, зі примітивними (плоскими) жартами.
coldice 
Поважний учасник


З нами з: 20.03.10
Востаннє: 10.07.20
Повідомлень: 156

2020-06-26 17:56  
Не зайшло, не стільки смішно скільки сумно... чимось нагадало Intelligence (2014)
teren7 
Частий відвідувач


З нами з: 08.10.10
Востаннє: 07.07.20
Повідомлень: 30

2020-06-28 22:58  
elephant1k написано:
У кінцевому підсумку, серiал - лажа. Шкода. Переклад супер.

Таки да. Підтримую обидва твердження.

Ваш часовий пояс: GMT + 2 Години

Нова тема   Відповісти