Торчвуд (Сезон 3) / Torchwood (Season 3) (2009) 1080p Ukr/Eng

Нові коментарі

Нова тема   Відповісти
Останній раз роздавалося ssTAss (2020-12-05)
Автор Повідомлення
Anonymous 







2020-05-30 20:48  
Торчвуд (Сезон 3) / Torchwood (Season 3) (2009) 1080p Ukr/Eng

Торчвуд (Сезон 3) / Torchwood (Season 3) (2009) 1080p Ukr/Eng


Жанр: екшн, драма, фантастика
Країна: Велика Британія



Кінокомпанія: BBC
Режисер: Ерос Лін
Актори: Джон Барроумен, Ів Майлс, Гарет Девід-Ллойд, Кей Оуен

Сюжет:
Одного чудового дня рівно о 8:40 за Гринвічем кожна дитина на Землі завмирає на хвилину. Багато батьків сприймають це, як дитячу витівку. Та проходить ще година і сорок хвилин, і діти в усьому світі вимовляють в унісон одну і ту ж фразу англійською: "Ми йдемо". Покликана боротися з позаземними погрозами, секретна організація "Торчвуд" нападає на слід, який веде в події більш ніж 40-річної давнини в Шотландії. В "Торчвуді" і не підозрюють, що урядом вже видано ордер на знищення їхнього капітана Джека Харкнесса.


Тривалість: 1 серія: ~58 хв. (цілком серій: 5)
Перелік серій
1.Children of Earth: Day (1)
2.Children of Earth: Day (2)
3.Children of Earth: Day (3)
4.Children of Earth: Day (4)
5.Children of Earth: Day (5)
Якість:
Відео:
кодек:
розмір кадру: 1920 x 1080
бітрейт: 8194 кб/с

Аудіо # 1:
мова: українська
переклад: багатоголосий закадровий
кодек: 2.0
бітрейт: 192 кб/с

Аудіо # 2:
мова: англійська
переклад: оригінал
кодек: 5.1
бітрейт: 1509 кб/с

Джерело озвучення:
Воля CINE+
Подяка за запис звуку з ТБ пану Sando7, а також пану, що побажав залишитися неназваним, за субтитри до вирізаних моментів.
Також пану leicheman за допомогу з синхронізацією.

Субтитри:
мова: українська (на вирізані місця телеканалом)
тип: програмні (м'які)
формат: *.srt
Info
Код:
General
Unique ID                                : 164593025184731571610383493814138299523 (0x7BD376AD71D62C278ABCBC9FBB6DE483)
Complete name                            : Torchwood S03E01 (2009) 1080p [Ukr_Eng] [Hurtom].
Format                                   :
Format version                           : Version 4
File size                                : 4.05 GiB
Duration                                 : 58 min 35 s
Overall bit rate                         : 9 889 kb/s
Movie name                               : Торчвуд (Сезон 3, серія 1) (2009)
Encoded date                             : UTC 2020-05-30 13:24:00
Writing application                      : v30.1.0 ('Forever And More') 64-bit
Writing library                          : libebml v1.3.6 + v1.4.9
Cover                                    : Yes
Attachments                              : cover.jpg

Video
ID                                       : 1
Format                                   : AVC
Format/Info                              : Advanced Video Codec
Format profile                           : [email protected]
Format settings                          : CABAC / 4 Ref Frames
Format settings, CABAC                   : Yes
Format settings, ReFrames                : 4 frames
Codec ID                                 : V_MPEG4/ISO/AVC
Duration                                 : 58 min 35 s
Bit rate                                 : 8 194 kb/s
Width                                    : 1 920 pixels
Height                                   : 1 080 pixels
Display aspect ratio                     : 16:9
Frame rate mode                          : Constant
Frame rate                               : 25.000 FPS
Color space                              : YUV
Chroma subsampling                       : 4:2:0
Bit depth                                : 8 bits
Scan type                                : Progressive
Bits/(Pixel*Frame)                       : 0.158
Stream size                              : 3.35 GiB (83%)
Writing library                          : core 124 r2197 69a0443
Encoding settings                        : cabac=1 / ref=4 / deblock=1:0:0 / analyse=0x3:0x133 / me=umh / subme=8 / psy=1 / psy_rd=1.00:0.00 / mixed_ref=1 / me_range=16 / chroma_me=1 / trellis=1 / 8x8dct=1 / cqm=0 / deadzone=21,11 / fast_pskip=0 / chroma_qp_offset=-2 / threads=18 / sliced_threads=0 / nr=0 / decimate=1 / interlaced=0 / bluray_compat=0 / constrained_intra=0 / bframes=3 / b_pyramid=2 / b_adapt=1 / b_bias=0 / direct=1 / weightb=1 / open_gop=0 / weightp=2 / keyint=250 / keyint_min=25 / scenecut=40 / intra_refresh=0 / rc_lookahead=40 / rc=2pass / mbtree=1 / bitrate=8194 / ratetol=1.0 / qcomp=0.60 / qpmin=0 / qpmax=69 / qpstep=4 / cplxblur=20.0 / qblur=0.5 / ip_ratio=1.40 / aq=1:1.00
Language                                 : English
Default                                  : Yes
Forced                                   : No

Audio #1
ID                                       : 2
Format                                   : AC-3
Format/Info                              : Audio Coding 3
Commercial name                          : Dolby Digital
Codec ID                                 : A_AC3
Duration                                 : 58 min 35 s
Bit rate mode                            : Constant
Bit rate                                 : 192 kb/s
Channel(s)                               : 2 channels
Channel layout                           : L R
Sampling rate                            : 48.0 kHz
Frame rate                               : 31.250 FPS (1536 SPF)
Bit depth                                : 16 bits
Compression mode                         : Lossy
Stream size                              : 80.5 MiB (2%)
Language                                 : Ukrainian
Service kind                             : Complete Main
Default                                  : Yes
Forced                                   : Yes

Audio #2
ID                                       : 3
Format                                   :
Format/Info                              : Digital Theater Systems
Codec ID                                 : A_DTS
Duration                                 : 58 min 35 s
Bit rate mode                            : Constant
Bit rate                                 : 1 509 kb/s
Channel(s)                               : 6 channels
Channel layout                           : C L R Ls Rs LFE
Sampling rate                            : 48.0 kHz
Frame rate                               : 93.750 FPS (512 SPF)
Bit depth                                : 16 bits
Compression mode                         : Lossy
Stream size                              : 632 MiB (15%)
Language                                 : English
Default                                  : No
Forced                                   : No

Text
ID                                       : 4
Format                                   : UTF-8
Codec ID                                 : S_TEXT/UTF8
Codec ID/Info                            : UTF-8 Plain Text
Duration                                 : 55 min 48 s
Bit rate                                 : 12 b/s
Count of elements                        : 86
Stream size                              : 5.29 KiB (0%)
Language                                 : Ukrainian
Default                                  : Yes
Forced                                   : Yes

Скріншоти




Джерело:


Бронзовий реліз (на рейтинг впливає 75% завантаженого)
 Трекер:    Зареєстрований   

Завантажити / скачати серіал українською



відео для новачків



 Зареєстрований:   2020-05-30 20:48
 Розмір:   20.23 GB 
 Оцінка серіалу:   8.2/10 (Голосів: 5)
   
Ваш часовий пояс: GMT + 2 Години

Нова тема   Відповісти