Уперед / Onward (2020) Remux 1080p Ukr/Eng | Sub Eng

Нові коментарі

Нова тема   Відповісти
Автор Повідомлення
Anonymous 







2020-05-29 19:46  
Уперед / Onward (2020) Remux 1080p Ukr/Eng | Sub Eng


Альтернативний постер


Жанр: комедія, мультфільм, пригоди, сімейний, фентезі
Країна: США



Кінокомпанія: Walt Disney Pictures, Pixar Animation Studios
Режисер: Ден Скенлон
Ролі озвучують: Том Голланд, Кріс Претт, Джулія Луіс-Дрейфус, Октавія Спенсер, Мел Родрігез, Кайл Борнхаймер, Алі Вонг, Грей ДеЛісл, Трейсі Уллмен

Сюжет:
Історія двох братів-ельфів, які живуть в сучасному світі пліч-о-пліч з іншими магічними істотами. В їхньому світі майже не залишилося магії, тому коли брати отримують шанс на один день оживити свого батька, вони відправляються в захоплюючий квест, де їм доведеться пройти безліч випробувань.


Тривалість: 01:42:21
Якість: Remux 1080p

Відео:
кодек:
розмір кадру: 1920х1080
бітрейт: 23.3 мб/с

Аудіо # 1:
мова: українська
переклад: професійний дубльований
кодек: 5.1
бітрейт: 384 кб/с

Аудіо # 2:
мова: англійська
переклад: оригінал
кодек: 5.1
бітрейт: 640 кб/с

Аудіо # 3:
мова: англійська
переклад: оригінал
кодек: TrueHD + Atmos 7.1
бітрейт: 7021 кб/с

Субтитри:
мова: англійська
тип: програмні (м'які)
формат: *.srt
Info
Код:
General
Complete name                            : Onward (2020) Remux 1080p [ukr, eng] [Hurtom].
Format                                   :
Format version                           : Version 4
File size                                : 22.5 GiB
Duration                                 : 1 h 42 min
Overall bit rate mode                    : Variable
Overall bit rate                         : 31.4 Mb/s
Movie name                               : Уперед / Onward (2020)
Encoded date                             : UTC 2020-06-11 21:05:35
Writing application                      : v30.1.0 ('Forever And More') 64-bit
Writing library                          : libebml v1.3.6 + v1.4.9
Cover                                    : Yes
Attachments                              : cover.jpg

Video
ID                                       : 1
Format                                   : AVC
Format/Info                              : Advanced Video Codec
Format profile                           : [email protected]
Format settings                          : CABAC / 4 Ref Frames
Format settings, CABAC                   : Yes
Format settings, RefFrames               : 4 frames
Codec ID                                 : V_MPEG4/ISO/AVC
Duration                                 : 1 h 42 min
Bit rate mode                            : Variable
Bit rate                                 : 23.3 Mb/s
Maximum bit rate                         : 32.0 Mb/s
Width                                    : 1 920 pixels
Height                                   : 1 080 pixels
Display aspect ratio                     : 16:9
Frame rate mode                          : Constant
Frame rate                               : 23.976 (24000/1001) FPS
Color space                              : YUV
Chroma subsampling                       : 4:2:0
Bit depth                                : 8 bits
Scan type                                : Progressive
Bits/(Pixel*Frame)                       : 0.469
Stream size                              : 16.7 GiB (74%)
Language                                 : English
Default                                  : Yes
Forced                                   : No

Audio #1
ID                                       : 2
Format                                   : AC-3
Format/Info                              : Audio Coding 3
Commercial name                          : Dolby Digital
Codec ID                                 : A_AC3
Duration                                 : 1 h 42 min
Bit rate mode                            : Constant
Bit rate                                 : 384 kb/s
Channel(s)                               : 6 channels
Channel layout                           : L R C LFE Ls Rs
Sampling rate                            : 48.0 kHz
Frame rate                               : 31.250 FPS (1536 SPF)
Bit depth                                : 16 bits
Compression mode                         : Lossy
Stream size                              : 281 MiB (1%)
Title                                    : , 6 ch, 384 Кбт/с
Language                                 : Ukrainian
Service kind                             : Complete Main
Default                                  : Yes
Forced                                   : No

Audio #2
ID                                       : 3
Format                                   : AC-3
Format/Info                              : Audio Coding 3
Commercial name                          : Dolby Digital
Codec ID                                 : A_AC3
Duration                                 : 1 h 42 min
Bit rate mode                            : Constant
Bit rate                                 : 640 kb/s
Channel(s)                               : 6 channels
Channel layout                           : L R C LFE Ls Rs
Sampling rate                            : 48.0 kHz
Frame rate                               : 31.250 FPS (1536 SPF)
Bit depth                                : 16 bits
Compression mode                         : Lossy
Stream size                              : 469 MiB (2%)
Title                                    : , 6 ch, 640 Кбт/с
Language                                 : English
Service kind                             : Complete Main
Default                                  : No
Forced                                   : No

Audio #3
ID                                       : 4
Format                                   : MLP FBA 16-ch
Format/Info                              : Meridian Lossless Packing FBA with 16-channel presentation
Commercial name                          : Dolby TrueHD with Dolby Atmos
Codec ID                                 : A_TRUEHD
Duration                                 : 1 h 42 min
Bit rate mode                            : Variable
Bit rate                                 : 7 021 kb/s
Maximum bit rate                         : 10.9 Mb/s
Channel(s)                               : 8 channels
Channel layout                           : L R C LFE Ls Rs Lb Rb
Sampling rate                            : 48.0 kHz
Frame rate                               : 1 200.000 FPS (40 SPF)
Compression mode                         : Lossless
Stream size                              : 5.02 GiB (22%)
Title                                    : TrueHD, 8 ch, 7021 Кбт/с
Language                                 : English
Default                                  : No
Forced                                   : No
Number of dynamic objects                : 13
Bed channel count                        : 1 channel
Bed channel configuration                : LFE

Text
ID                                       : 5
Format                                   : UTF-8
Codec ID                                 : S_TEXT/UTF8
Codec ID/Info                            : UTF-8 Plain Text
Duration                                 : 1 h 35 min
Bit rate                                 : 75 b/s
Count of elements                        : 1904
Stream size                              : 53.0 KiB (0%)
Language                                 : English
Default                                  : No
Forced                                   : No

Menu
00:00:00.686                             : en:Studio Logo
00:00:49.686                             : en:Long ago
00:03:04.686                             : en:Title Sequence
00:03:09.686                             : en:Ian's morning
00:05:03.686                             : en:Officer Bronco comes to Ligjtfoots
00:07:03.686                             : en:Ian meet Dad's friend
00:08:14.686                             : en:Making a list
00:09:34.686                             : en:Ian starts his day
00:12:44.686                             : en:Ian misses his Dad
00:14:53.686                             : en:A gift from Dad
00:19:17.686                             : en:Ian is at his room
00:20:38.686                             : en:Barley comes up with something
00:23:46.686                             : en:Barley drives his car
00:25:34.686                             : en:Learning magic
00:27:25.686                             : en:The boys look for the Manticore
00:31:21.686                             : en:The Manticore comes back
00:32:49.686                             : en:Laurel worries about the boys
00:36:33.686                             : en:Guinevere gets a trouble
00:39:34.686                             : en:Ian tries magic again
00:42:48.686                             : en:The Manticore talks to Laurel
00:44:00.686                             : en:Ian drives Guinevere
00:47:48.686                             : en:The spell wears off
00:51:43.686                             : en:Barley argues with Ian
00:54:59.686                             : en:Grecklin of the Pawn shop
00:56:07.686                             : en:Bronco calls Laurel
00:57:24.686                             : en:Raven's Point
01:03:06.686                             : en:Bronco chases the boys
01:07:05.686                             : en:The boys follow the birds
01:08:49.686                             : en:Ian likes the spell
01:10:06.686                             : en:Laurel encounters Pixie Dusters
01:11:12.686                             : en:Barley talks about Dad
01:13:30.686                             : en:The boys are in dangerous
01:15:58.686                             : en:Back where they started
01:17:59.686                             : en:Barley cannot give it up
01:20:26.686                             : en:It's curse
01:22:44.686                             : en:I am a mighty warrior
01:24:26.686                             : en:Ian's decision
01:26:59.686                             : en:What Ian see
01:30:07.686                             : en:Ian back to his school
01:32:53.686                             : en:End Credits
Скріншоти



Джерело:
Особиста оцінка: 0 - не дивився


Золотий реліз (завантажене не впливає на рейтинг)
 Трекер:    Зареєстрований   

Завантажити / скачати мультфільм українською



відео для новачків



 Зареєстрований:   2020-06-11 23:29
 Розмір:   22.47 GB 
 Оцінка мультфільму:   9.4/10 (Голосів: 19)
   
Інші релізи
   Уперед / Onward (2020) 1080p H.265 Ukr/Eng | Sub Eng -Star-Lord-  29 / 0   6.21 GB   2020-06-16 21:48 
   Уперед / Onward (2020) 720p Ukr/Eng | Sub Eng staf777  30 / 0   3.59 GB   2020-06-13 07:34 
   Уперед / Onward (2020) 1080p Ukr/Eng | Sub Eng staf777  23 / 0   7.8 GB   2020-06-12 09:57 
   Уперед / Onward (2020) Ukr/Eng antik_2008  31 / 0   1.98 GB   2020-06-12 00:27 
   Уперед / Onward (2020) UHD Remux 4K 2160p Ukr/Eng | Sub Eng antik_2008  13 / 0   34.59 GB   2020-06-11 23:18 
   Уперед / Onward (2020) 1080p 3D [Half OverUnder] Ukr/Eng | Sub Eng antik_2008  5 / 0   7.88 GB   2020-06-11 23:18 
   Уперед / Onward (2020) AVC Ukr/Eng | Sub Eng 11FrYkT  71 / 0   1.94 GB   2020-06-11 18:53 
gypokratyk 
Новенький


З нами з: 21.11.09
Востаннє: 11.10.20
Повідомлень: 8

2020-05-31 15:33  
Неймовірний фільм!!!
ukrnet 
Свій


З нами з: 03.01.14
Востаннє: 21.02.21
Повідомлень: 112

2020-06-01 10:52  
чекаю з нетерпінням ! Буду роздавати 24/7
Anonymous 







2020-06-11 23:29  
Реліз готовий!
Ваш часовий пояс: GMT + 2 Години

Нова тема   Відповісти