[збір коштів] Перрі Мейсон (Сезон 1, серії 1-6) / Perry Mason (Season 1, episodes 1-6) (2020) 1080p Ukr/Eng

Нові коментарі

Нова тема   Відповісти
Автор Повідомлення
Цікава ідея 
VIP


З нами з: 26.12.11
Востаннє: 21.09.20
Повідомлень: 664

2020-05-29 18:43  
| AVC | 1080p

[збір коштів] Перрі Мейсон (Сезон 1, серії 1-6) / Perry Mason (Season 1, episodes 1-6) (2020) 1080p Ukr/Eng


[збір коштів] Перрі Мейсон (Сезон 1, серії 1-6) / Perry Mason (Season 1, episodes 1-6) (2020) 1080p Ukr/Eng


За серіалом 1957 року.
У головній ролі Реймонд Барр.


Жанр: кримінал, драма
Країна: США



Кінокомпанія / телеканал: HBO
Режисери: Рон Фіцджеральд, Ролін Джонс
Актори: Меттью Ріс, Джеддія Дженк, Нік Ла Круа, Тетяна Маслані, Дрю Уолтон, Джульєтта Райланс, Гізер Шилдс, Денис Толяренко, Жанна Карр та інші.

Сюжет:
Американський телевізійний міні-серіал детективного жанру за романом Ерла Стенлі Гарднера «Перрі Мейсон».
Історію про детектива Перрі Мейсона екранізовували вже неодноразово, як в серіалах, так і у повнометражних фільмах. У новому серіалі піде мова про часи, коли Мейсон ще не працював адвокатом захисту.

Події розгортаються у 1932 році — часи відновлення Сполучених Штатів після Великої депресіі, та розквіту Лос-Анджелеса. Детективу доведеться розслідувати крупну справу, яка виявить злочинний бік міста.


На озвучення серіалу проходить ЗБІР КОШТІВ

Перекладено та озвучено ТО "Цікава Ідея"


Український трейлер в нашому озвученні.


ЯКЩО НЕ ПРАЦЮЄ ТИЦЬ СЮДИ


Тривалість: 1 серія: ~ 55 хв. (цілком серій: 6/8)
Перелік серій:

01. Chapter One
02. Chapter Two
03. Chapter Three
04. Chapter Four
05. Chapter Five
06. Chapter Six
07. Chapter Seven
08. Chapter Eight
Якість: 1080p
Відео:
кодек:
розмір кадру: 1920 x 1080
бітрейт: ~ 10 000 кб/с

Аудіо # 1:
мова: українська | "Цікава Ідея"
переклад: професійний багатоголосий закадровий
кодек: 5.1
бітрейт: 448 кб/с

Аудіо # 2:
мова: англійська
переклад: оригінал
кодек: E- 5.1
бітрейт: 640 кб/с
Info
Код:
Format                      :
Format version              : Version 4
File size                   : 4.01 GiB
Duration                    : 57 min 31 s
Overall bit rate mode       : Constant
Overall bit rate            : 9 981 kb/s
Movie name                  : Перрі Мейсон / Perry Mason - S01E01 (2020) 1080p [Ukr.Eng] [Цікава Ідея]
Encoded date                : UTC 2020-06-23 18:18:03
Writing application         : v6.8.0 ('Theme for Great Cities') 32bit built on Mar  2 2014 21:27:07
Writing library             : libebml v1.3.0 + v1.4.1
Cover                       : Yes
Attachments                 : cover.png

Video
ID                          : 1
Format                      : AVC
Format/Info                 : Advanced Video Codec
Format profile              : [email protected]
Format settings             : CABAC / 4 Ref Frames
Format settings, CABAC      : Yes
Format settings, Reference  : 4 frames
Codec ID                    : V_MPEG4/ISO/AVC
Duration                    : 57 min 30 s
Bit rate mode               : Constant
Bit rate                    : 8 695 kb/s
Nominal bit rate            : 10 000 kb/s
Width                       : 1 920 pixels
Height                      : 1 080 pixels
Display aspect ratio        : 16:9
Frame rate mode             : Constant
Frame rate                  : 23.976 (24000/1001) FPS
Color space                 : YUV
Chroma subsampling          : 4:2:0
Bit depth                   : 8 bits
Scan type                   : Progressive
Bits/(Pixel*Frame)          : 0.175
Stream size                 : 3.49 GiB (87%)
Language                    : English
Default                     : Yes
Forced                      : No
Color range                 : Limited
Color primaries             : BT.709
Transfer characteristics    : BT.709
Matrix coefficients         : BT.709

Audio #1
ID                          : 2
Format                      : AC-3
Format/Info                 : Audio Coding 3
Commercial name             : Dolby Digital
Codec ID                    : A_AC3
Duration                    : 57 min 31 s
Bit rate mode               : Constant
Bit rate                    : 448 kb/s
Channel(s)                  : 6 channels
Channel layout              : L R C LFE Ls Rs
Sampling rate               : 48.0 kHz
Frame rate                  : 31.250 FPS (1536 SPF)
Bit depth                   : 16 bits
Compression mode            : Lossy
Stream size                 : 184 MiB (4%)
Title                       : Українська
Language                    : Ukrainian
Service kind                : Complete Main
Default                     : Yes
Forced                      : No

Audio #2
ID                          : 3
Format                      : E-AC-3
Format/Info                 : Enhanced AC-3
Commercial name             : Dolby Digital Plus
Codec ID                    : A_EAC3
Duration                    : 57 min 31 s
Bit rate mode               : Constant
Bit rate                    : 640 kb/s
Channel(s)                  : 6 channels
Channel layout              : L R C LFE Ls Rs
Sampling rate               : 48.0 kHz
Frame rate                  : 31.250 FPS (1536 SPF)
Compression mode            : Lossy
Delay relative to video     : 28 ms
Stream size                 : 263 MiB (6%)
Language                    : English
Service kind                : Complete Main
Default                     : No
Forced                      : No
Скріншоти



Перекладено та озвучено творчим об'єднанням:
Переклад: Федір Сидорук.


Авторський реліз (завантажувати можна без реєстрації)
 Трекер:    Зареєстрований   

Завантажити / скачати серіал українською



відео для новачків



 Зареєстрований:   2020-09-14 21:47
 Розмір:   25.82 GB 
 Оцінка серіалу:   9.9/10 (Голосів: 14)
   
21jumpstreet 
VIP


З нами з: 03.07.12
Востаннє: 20.09.20
Повідомлень: 1232

2020-05-29 18:45  
Оригінал було знято в 1957 році. У гол ролі Реймонд Барр. Музика інтро топ.
Цікава ідея 
VIP


З нами з: 26.12.11
Востаннє: 21.09.20
Повідомлень: 664

2020-05-29 18:52  
Друзі, підтримайте озвучення серіалу,
реквізити в описі релізу!

Цікава ідея 
VIP


З нами з: 26.12.11
Востаннє: 21.09.20
Повідомлень: 664

2020-06-05 17:22  
Український трейлер в нашому озвученні.


ЯКЩО НЕ ПРАЦЮЄ ТИЦЬ СЮДИ

bot 
робот


З нами з: 30.09.07
Востаннє: 26.05.05
Повідомлень: 25548

2020-06-23 21:29  
Тему перенесено з Анонси релізів до форуму Серіали в HD


Цікава ідея

Цікава ідея 
VIP


З нами з: 26.12.11
Востаннє: 21.09.20
Повідомлень: 664

2020-06-23 21:31  
Друзі, ми переклали та озвучили 1 серію!
Підтримайте озвучення наступних серій,
реквізити в описі релізу.


Бажаємо всім приємного перегляду!

Marina_C 
Новенький


З нами з: 24.03.18
Востаннє: 12.09.20
Повідомлень: 1

2020-06-24 11:42  
Зробіть з англійськими субтитрами, будь-ласка!
Цікава ідея 
VIP


З нами з: 26.12.11
Востаннє: 21.09.20
Повідомлень: 664

2020-06-24 12:11  
Marina_C написано:
Зробіть з англійськими субтитрами, будь-ласка!

Зробимо.

Цікава ідея 
VIP


З нами з: 26.12.11
Востаннє: 21.09.20
Повідомлень: 664

2020-07-01 22:11  
Друзі, ми переклали та озвучили 2 серію!
Підтримайте озвучення наступних серій,
реквізити в описі релізу.


Бажаємо всім приємного перегляду!

Цікава ідея 
VIP


З нами з: 26.12.11
Востаннє: 21.09.20
Повідомлень: 664

2020-08-25 00:21  
Друзі, ми переклали та озвучили 3-4 серії!
Підтримайте озвучення наступних серій,
реквізити в описі релізу.


Бажаємо всім приємного перегляду!

Цікава ідея 
VIP


З нами з: 26.12.11
Востаннє: 21.09.20
Повідомлень: 664

2020-09-14 21:48  
Друзі, ми переклали та озвучили 5-6 серії!
Підтримайте озвучення наступних серій,
реквізити в описі релізу.


Бажаємо всім приємного перегляду!

Ваш часовий пояс: GMT + 2 Години

Нова тема   Відповісти