Центральний парк (Сезон 1, серії 1-8) / Central Park (Season 1, episodes 1-8) (2020) 720p Eng | sub Ukr/Eng

Нові коментарі

Нова тема   Відповісти
Автор Повідомлення
Anonymous 







2020-05-29 16:33  
Центральний парк (Сезон 1, серії 1-8) / Central Park (Season 1, episodes 1-8) (2020) 720p Eng | sub Ukr/Eng

Центральний парк (Сезон 1, серії 1-8) / Central Park (Season 1, episodes 1-8) (2020) 720p Eng | sub Ukr/Eng
Оригінальний постер:

Центральний парк (Сезон 1, серії 1-8) / Central Park (Season 1, episodes 1-8) (2020) 720p Eng | sub Ukr/Eng

Жанр: анімація, комедія, музичний
Країна: США



Кінокомпанія: 20th Century Fox Television, Brillstein Entertainment Partners, Fox Television Animation, Apple TV+
Автори: Лорен Бушар / Loren Bouchard, Джош Ґад / Josh Gad, Нора Сміт / Nora Smith
Актори: Джош Ґад / Josh Gad, Макс Робінсон / Maxmillian Robinson, Крістен Белл / Kristen Bell та інші

Сюжет:
Мультиплікаційний серіал, який розповідає про те, як сім'я доглядачів, які живуть і працюють у Центральному парку, врешті-решт рятує парк, а заодно і світ.
Офіційний трейлер:

Рейтинг у США: TV-14 - може містити матеріали, що не підходять для дітей до 14 років
Вікова категорія: 12+

Тривалість: 1 серія: 25 хвилин (цілком серій: 8 з 13)
Перелік серій:
S01E01 Episode One
S01E02 Skater's Circle
S01E03 Hat Luncheon
S01E04 Garbage Ballet
S01E05 Dog Spray Afternoon
S01E06 Rival Busker
S01E07 Squirrel, Interrupted
S01E08 Hot Oven
S01E09 Live it Up Tonight
S01E10 Sir Bricks-a-Lot
S01E11 A Fish Called Snakehead
S01E12 Heist
S01E13 Fista-Puffs Mets Out Justice
Якість: 720p
Відео:
кодек:
розмір кадру: 1280х720
бітрейт: 2478÷3544 кб/с

Аудіо:
мова: англійська
переклад: оригінал
кодек: 5.1
бітрейт: 448 кб/с

Субтитри # 1:
мова: українська
тип: програмні (м'які)
формат: *.srt
переклад: офіційний, Олена Цехмейструк

Субтитри # 2-3:
мова: англійська (повні, SDH)
тип: програмні (м'які)
формат: *.srt
Info
Код:
Complete name               : S01E02.Central Park (2020) [Eng sub.Ukr,Eng] 720p [Hurtom].
Format                      :
Format version              : Version 4
File size                   : 732 MiB
Duration                    : 25 min 36 s
Overall bit rate            : 3 995 kb/s
Movie name                  : S01E02 [Skater's Circle] Центральний парк / Central Park (2020) [Eng sub Ukr,Eng] 720p [Hurtom]
Encoded date                : UTC 2020-05-29 14:05:07
Writing application         : v46.0.0 ('No Deeper Escape') 64-bit
Writing library             : libebml v1.3.10 + v1.5.2
Cover                       : Yes
Attachments                 : cover.jpg

Video
ID                          : 1
Format                      : AVC
Format/Info                 : Advanced Video Codec
Format profile              : [email protected]
Format settings             : CABAC / 5 Ref Frames
Format settings, CABAC      : Yes
Format settings, Reference  : 5 frames
Codec ID                    : V_MPEG4/ISO/AVC
Duration                    : 25 min 36 s
Bit rate                    : 3 544 kb/s
Width                       : 1 280 pixels
Height                      : 720 pixels
Display aspect ratio        : 16:9
Frame rate mode             : Constant
Frame rate                  : 23.976 (24000/1001) FPS
Color space                 : YUV
Chroma subsampling          : 4:2:0
Bit depth                   : 8 bits
Scan type                   : Progressive
Bits/(Pixel*Frame)          : 0.160
Stream size                 : 649 MiB (89%)
Title                       : S01E02 Центральний парк / Central Park (2020) 720p [ATVP, fiasco]
Language                    : English
Default                     : Yes
Forced                      : No
Color range                 : Limited
Color primaries             : BT.709
Transfer characteristics    : BT.709
Matrix coefficients         : BT.709

Audio
ID                          : 2
Format                      : AC-3
Format/Info                 : Audio Coding 3
Commercial name             : Dolby Digital
Codec ID                    : A_AC3
Duration                    : 25 min 36 s
Bit rate mode               : Constant
Bit rate                    : 448 kb/s
Channel(s)                  : 6 channels
Channel layout              : L R C LFE Ls Rs
Sampling rate               : 48.0 kHz
Frame rate                  : 31.250 FPS (1536 SPF)
Compression mode            : Lossy
Stream size                 : 82.1 MiB (11%)
Language                    : English
Service kind                : Complete Main
Default                     : Yes
Forced                      : No

Text #1
ID                          : 3
Format                      : UTF-8
Codec ID                    : S_TEXT/UTF8
Codec ID/Info               : UTF-8 Plain Text
Duration                    : 25 min 25 s
Bit rate                    : 161 b/s
Count of elements           : 580
Stream size                 : 30.1 KiB (0%)
Title                       : Ukr Full [Apple TV+]
Language                    : Ukrainian
Default                     : Yes
Forced                      : Yes

Text #2
ID                          : 4
Format                      : UTF-8
Codec ID                    : S_TEXT/UTF8
Codec ID/Info               : UTF-8 Plain Text
Duration                    : 25 min 19 s
Bit rate                    : 109 b/s
Count of elements           : 564
Stream size                 : 20.3 KiB (0%)
Title                       : Eng Full
Language                    : English
Default                     : No
Forced                      : No

Text #3
ID                          : 5
Format                      : UTF-8
Codec ID                    : S_TEXT/UTF8
Codec ID/Info               : UTF-8 Plain Text
Duration                    : 25 min 29 s
Bit rate                    : 123 b/s
Count of elements           : 593
Stream size                 : 23.1 KiB (0%)
Title                       : Eng SDH
Language                    : English
Default                     : No
Forced                      : No




Джерело: &


Бронзовий реліз (на рейтинг впливає 75% завантаженого)
 Трекер:    Зареєстрований   

Завантажити / скачати мультфільм українською



відео для новачків



 Зареєстрований:   2020-07-10 08:33
 Розмір:   4.3 GB 
 Оцінка мультсеріалу:   8.1/10 (Голосів: 7)
 ЗАЛИШАЙТЕСЬ ЯКОМОГА ДОВШЕ НА РОЗДАЧІ! ЗАВАНТАЖИВ САМ - ДАЙ ЗАВАНТАЖИТИ ІНШИМ!
   
PuMa.ua 
VIP


З нами з: 29.08.08
Востаннє: 10.07.20
Повідомлень: 429

2020-05-29 16:41  
Тільки то є не вебріп, а вебдл.
leicheman 
Відео Гуртом - фільмокрай
Відео Гуртом - фільмокрай


З нами з: 03.07.14
Востаннє: 11.07.20
Повідомлень: 5133

2020-05-29 16:43  
подивися я ці дві серії, ну так собі. пісні кумедні і приємні, але загалом нічого особливого. надіюсь, що далі завезуть сюжет
bot 
робот


З нами з: 30.09.07
Востаннє: 26.05.05
Повідомлень: 25031

2020-05-29 17:11  
Тему перенесено з Анонси релізів до форуму Мультсеріали


igor911

Electroz 
Відео Гуртом - підтримка та поширення
Відео Гуртом - підтримка та поширення


З нами з: 18.09.14
Востаннє: 11.07.20
Повідомлень: 3950

2020-05-29 21:22  
Локалізований постер.

Anonymous 







2020-05-29 21:47  
Electroz, дякую.
Anonymous 







2020-06-05 16:07  
+ 3я серія
Anonymous 







2020-06-12 09:56  
+ 4а серія
Anonymous 







2020-06-19 09:32  
+ 5а серія
Anonymous 







2020-06-26 12:09  
+ 6а серія
Anonymous 







2020-07-03 11:57  
+ 7а серія
Anonymous 







2020-07-10 08:33  
+ 8а серія
Ваш часовий пояс: GMT + 2 Години

Нова тема   Відповісти