Співоче деревце / Das singende, klingende Bäumchen (2016) 1080p Ukr/Ger

Нові коментарі

Нова тема   Відповісти
Автор Повідомлення
Anonymous 







2020-05-28 17:24  
Співоче деревце / Das singende, klingende Bäumchen (2016) 1080p Ukr/Ger

Співоче деревце / Das singende, klingende Bäumchen (2016) 1080p Ukr/Ger
DVD




Жанр: сімейний, казка, романтичний
Країна: Німеччина



Кінокомпанія: StudioTV Film
Режисер: Вольфганг Айсслер
Актори: Ютта-Мерле Бьорнзен, Лукас Призор, Хайнц Хеніг, Олівер Бігальке, Штеффі Кюнарт, Денис Шмідт, Крістель Боденштайн, Алєксандр Язин

Сюжет:
За мотивами казки братів Грімм. В одному королівстві живе вродлива, але вередлива і зарозуміла принцеса. Той, хто хоче на ній одружитися, отримує категоричну відмову. Одного разу просити руки королівської доньки приходить прекрасний принц. Принцеса дає свою згоду на шлюб, але за однієї умови. Наречений повинен знайти деревце яке співає...


Тривалість: 00:58:55
Якість:
Відео:
кодек:
розмір кадру: 1920 х 1080
бітрейт: 6480 кб/с

Аудіо # 1:
мова: українська
переклад: професійний дубльований
кодек: 2.0
бітрейт: 192 кб/с

Аудіо # 2:
мова: німецька
переклад: оригінал
кодек: 2.0
бітрейт: 192 кб/с

Джерело озвучення:

За запис звуку з ТБ дякуємо пану Bohdan237
Звук взято з релізу
Info
Код:
General
Unique ID                                : 40981102100359946440268733342001415041 (0x1ED4AC54CC29E8D6A105E1B4436C4381)
Complete name                            : Das singende, klingende Bäumchen (2016) 1080p [Ukr_Ger] [Hurtom].
Format                                   :
Format version                           : Version 4
File size                                : 2.83 GiB
Duration                                 : 58 min 55 s
Overall bit rate mode                    : Variable
Overall bit rate                         : 6 866 kb/s
Movie name                               : Співоче деревце (2016)
Encoded date                             : UTC 2020-05-26 21:41:05
Writing application                      : v30.1.0 ('Forever And More') 64-bit
Writing library                          : libebml v1.3.6 + v1.4.9
Cover                                    : Yes
Attachments                              : cover.jpg

Video
ID                                       : 1
Format                                   : AVC
Format/Info                              : Advanced Video Codec
Format profile                           : [email protected]
Format settings                          : CABAC / 2 Ref Frames
Format settings, CABAC                   : Yes
Format settings, ReFrames                : 2 frames
Codec ID                                 : V_MPEG4/ISO/AVC
Duration                                 : 58 min 55 s
Bit rate mode                            : Variable
Bit rate                                 : 6 480 kb/s
Maximum bit rate                         : 8 200 kb/s
Width                                    : 1 920 pixels
Height                                   : 1 080 pixels
Display aspect ratio                     : 16:9
Frame rate mode                          : Constant
Frame rate                               : 50.000 FPS
Color space                              : YUV
Chroma subsampling                       : 4:2:0
Bit depth                                : 8 bits
Scan type                                : Progressive
Bits/(Pixel*Frame)                       : 0.062
Stream size                              : 2.67 GiB (94%)
Language                                 : German
Default                                  : Yes
Forced                                   : No

Audio #1
ID                                       : 2
Format                                   : AC-3
Format/Info                              : Audio Coding 3
Commercial name                          : Dolby Digital
Codec ID                                 : A_AC3
Duration                                 : 58 min 55 s
Bit rate mode                            : Constant
Bit rate                                 : 192 kb/s
Channel(s)                               : 2 channels
Channel layout                           : L R
Sampling rate                            : 48.0 kHz
Frame rate                               : 31.250 FPS (1536 SPF)
Bit depth                                : 16 bits
Compression mode                         : Lossy
Stream size                              : 80.9 MiB (3%)
Language                                 : Ukrainian
Service kind                             : Complete Main
Default                                  : Yes
Forced                                   : Yes

Audio #2
ID                                       : 3
Format                                   : LC
Format/Info                              : Advanced Audio Codec Low Complexity
Codec ID                                 : A_AAC-2
Duration                                 : 58 min 55 s
Bit rate                                 : 192 kb/s
Channel(s)                               : 2 channels
Channel layout                           : L R
Sampling rate                            : 48.0 kHz
Frame rate                               : 46.875 FPS (1024 SPF)
Compression mode                         : Lossy
Stream size                              : 79.5 MiB (3%)
Language                                 : German
Default                                  : No
Forced                                   : No

Скріншоти





Джерело:


 Трекер:    Зареєстрований   

Завантажити / скачати фільм українською



відео для новачків



 Зареєстрований:   2020-05-28 17:24
 Розмір:   2.83 GB 
 Оцінка фільму:   8.8/10 (Голосів: 5)
   
Інші релізи
Ваш часовий пояс: GMT + 2 Години

Нова тема   Відповісти