Мінлива хмарність, часом фрикадельки / Cloudy with a Chance of Meatballs (Сезон 1, 19 серій з 52) (2017) 1080p Ukr/Eng

Нові коментарі

Нова тема   Відповісти
Автор Повідомлення
sergiyko.5 
VIP


З нами з: 25.02.16
Востаннє: 08.07.20
Повідомлень: 3241

2020-05-27 13:21  
Мінлива хмарність часом фрикадельки / Cloudy with a Chance of Meatballs (Сезон 1) (2017) 1080p Ukr/Eng


Мінлива хмарність, часом фрикадельки / Cloudy with a Chance of Meatballs (Сезон 1, 19 серій з 52) (2017) 1080p Ukr/Eng

Жанр: комедія, пригоди
Країна: Канада, США
Кінокомпанія: DHX Media, Sony Pictures Animation
Режисер: Ендрю Дункан

Сюжет:
Схиблений на науці Флінт Локвуд зі Своллоу Фоллз не уявляє свого життя без винаходів. А жителі містечка вже не знають, куди ховатись від побічних ефектів діяльності юного винахідника та його подружки. Однак Флінт повен ідей і не втрачає надії створити винахід, який прославить його на весь світ.




Тривалість: 1 серія: 00:10:35 (цілком серій: 19 з 52)
Якість:

Відео: кодек: розмір кадру: 1920 х 1080 бітрейт: 2600 кб/с
Аудіо 1: мова: українська переклад: професійний дубльований кодек: 2.0 бітрейт: 128 кб/с
Озвучення:
Аудіо 2: мова: англійська переклад: оригінал кодек: 2.0 бітрейт: 128 кб/с
Перелік серій
01.Це хто тут мотлох
02.Балада про Джоні Сардину
03.І переможець
04.Смажений бекон
05.Винайдіть нам
06.Принцеса рукавичка
07.Мавпа-мільйонер
08.Нянька малюка Брента
09.Спойлерна куля
10.Нашестя панд
11.Вхід лише для винахідників
12.Кукуріку
13.Сардемон
14.Фестиваль сардин

16.Однаковісінькі

21.Наука про гази
22.Перенапруження

24.Знову волохаті
25.Саме час
Про файл:
General
Unique ID : 41729921396144342763770768720941818446 (0x1F64E3F913EC5F8FEE1F4E886884224E)
Complete name : D:\Documents\Torrents\MULTSER_2\Cloudy with a Chance of Meatballs S01 1080p \S01E01.Це хто тут мотлох.1080p..
Format :
Format version : Version 4
File size : 209 MiB
Duration : 10 min 34 s
Overall bit rate : 2 759 kb/s
Movie name : Cloudy with a Chance of Meatballs S01 by sergiyko
Encoded date : UTC 2020-05-27 10:03:40
Writing application : v46.0.0 ('No Deeper Escape') 64-bit
Writing library : libebml v1.3.10 + v1.5.2

Video
ID : 1
Format : AVC
Format/Info : Advanced Video Codec
Format profile : [email protected]
Format settings : CABAC / 4 Ref Frames
Format settings, CABAC : Yes
Format settings, Reference : 4 frames
Codec ID : V_MPEG4/ISO/AVC
Duration : 10 min 34 s
Bit rate mode : Constant
Bit rate : 2 498 kb/s
Nominal bit rate : 3 400 kb/s
Width : 1 920 pixels
Height : 1 080 pixels
Display aspect ratio : 16:9
Frame rate mode : Constant
Frame rate : 25.000 FPS
Color space : YUV
Chroma subsampling : 4:2:0
Bit depth : 8 bits
Scan type : Progressive
Bits/(Pixel*Frame) : 0.048
Stream size : 189 MiB (91%)
Language : English
Default : Yes
Forced : No

Audio #1
ID : 2
Format : LC
Format/Info : Advanced Audio Codec Low Complexity
Codec ID : A_AAC-2
Duration : 10 min 34 s
Bit rate : 129 kb/s
Channel(s) : 2 channels
Channel layout : L R
Sampling rate : 48.0 kHz
Frame rate : 46.875 FPS (1024 SPF)
Compression mode : Lossy
Delay relative to video : -80 ms
Stream size : 9.74 MiB (5%)
Language : Ukrainian
Default : Yes
Forced : Yes

Audio #2
ID : 3
Format : LC
Format/Info : Advanced Audio Codec Low Complexity
Codec ID : A_AAC-2
Duration : 10 min 34 s
Bit rate : 129 kb/s
Channel(s) : 2 channels
Channel layout : L R
Sampling rate : 48.0 kHz
Frame rate : 46.875 FPS (1024 SPF)
Compression mode : Lossy
Delay relative to video : -80 ms
Stream size : 9.75 MiB (5%)
Language : English
Default : No
Forced : No
Скріншоти:

Запис: sergiyko


Бронзовий реліз (на рейтинг впливає 75% завантаженого)
 Трекер:    Зареєстрований   

Завантажити / скачати мультфільм українською



відео для новачків



 Зареєстрований:   2020-05-27 18:06
 Розмір:   6.36 GB 
 Оцінка мультсеріалу:   7/10 (Голосів: 3)
   
Ваш часовий пояс: GMT + 2 Години

Нова тема   Відповісти