Вибір Чака / Chuck's Choice (Сезон 1, 19 серій з 40) (2017) 1080p HDTV

Нові коментарі

Нова тема   Відповісти
Останній раз роздавалося yterpil (2021-04-20)
Автор Повідомлення
sergiyko.5 
Забанено
Забанено


З нами з: 25.02.16
Востаннє: 29.10.20
Повідомлень: 3648

2020-05-27 11:39  
Вибір Чака / Chuck's Choice (Сезон 1) (2017) 1080p HDTV


Вибір Чака / Chuck's Choice (Сезон 1, 19 серій з 40) (2017) 1080p HDTV

Жанр: комедія, пригоди
Країна: Канада
Кінокомпанія: DHX Media
Режисер: Роб Баутільєр, Джон Ізен

Сюжет:
Іноді зробити вибір дуже складно. Чаку МакФарлену дуже пощастило: у нього є унікальний міжгалактичний подарунок – Модуль рішень, завдяки якому Чак з друзями може обирати час та місце для наступних пригод!


Тривалість: 1 серія: 00:10:35 (цілком серій: 19 з 40)
Якість: HDTV

Відео: кодек: розмір кадру: 1920 х 1080 бітрейт: 2600 кб/с
Аудіо: мова: українська переклад: професійний дубльований кодек: 2.0 бітрейт: 224 кб/с
Озвучення:
Перелік серій
02 Сонячний удар
03 Скажи, хто твій друг
05 Розумнішай, Чаку
06 Неперевершений Чак
07 Зубний кошмар
08 Прислуга із Сідар-Хіллс
09 Свинячий герой
11 Дорослий Чак
12 Династія Чака
13 Птахи у дії ts
15 Шкатулка Норма
18 Чотирилапий коп
19 Легше, Боркле
20 Хто проклятий
21 Екс Мішина
23 Головний біль Двейна
25 Невловима комета
28 Куртки з бахромою
31 Темний Динго і Опосум Піт
Про файл:
General
Unique ID : 183523185008364231732337931302062207184 (0x8A11479DAD0559C1CD59CDE7823730D0)
Complete name : D:\Documents\Torrents\MULTSER_2\Chuck's Choice S01 1080p HDTV\S01E02.Сонячний удар.1080p.HDTV.
Format :
Format version : Version 4
File size : 214 MiB
Duration : 10 min 34 s
Overall bit rate : 2 822 kb/s
Movie name : Chuck's Choice S01 1080p HDTV by sergiyko
Encoded date : UTC 2020-05-27 08:04:02
Writing application : v46.0.0 ('No Deeper Escape') 64-bit
Writing library : libebml v1.3.10 + v1.5.2

Video
ID : 1
Format : AVC
Format/Info : Advanced Video Codec
Format profile : [email protected]
Format settings : CABAC / 4 Ref Frames
Format settings, CABAC : Yes
Format settings, Reference fra : 4 frames
Codec ID : V_MPEG4/ISO/AVC
Duration : 10 min 34 s
Bit rate mode : Constant
Bit rate : 2 562 kb/s
Nominal bit rate : 3 400 kb/s
Width : 1 920 pixels
Height : 1 080 pixels
Display aspect ratio : 16:9
Frame rate mode : Constant
Frame rate : 25.000 FPS
Color space : YUV
Chroma subsampling : 4:2:0
Bit depth : 8 bits
Scan type : Progressive
Bits/(Pixel*Frame) : 0.049
Stream size : 194 MiB (91%)
Language : English
Default : Yes
Forced : No

Audio #1
ID : 2
Format : LC
Format/Info : Advanced Audio Codec Low Complexity
Codec ID : A_AAC-2
Duration : 10 min 34 s
Bit rate : 128 kb/s
Channel(s) : 2 channels
Channel layout : L R
Sampling rate : 48.0 kHz
Frame rate : 46.875 FPS (1024 SPF)
Compression mode : Lossy
Stream size : 9.70 MiB (5%)
Language : Ukrainian
Default : Yes
Forced : Yes
Скріншоти:


Запис: sergiyko


Бронзовий реліз (на рейтинг впливає 75% завантаженого)
 Трекер:    Зареєстрований   

Завантажити / скачати мультфільм українською



відео для новачків



 Зареєстрований:   2020-05-27 11:39
 Розмір:   4.58 GB 
 Оцінка мультсеріалу:   7.8/10 (Голосів: 4)
   
Ваш часовий пояс: GMT + 2 Години

Нова тема   Відповісти