Kladovest - Ignitiate (2016) [] | Black Metal

Нові коментарі

Нова тема   Відповісти
Останній раз роздавалося Volovik (2020-08-07)
Автор Повідомлення
kolpavel 
VIP


З нами з: 04.05.14
Востаннє: 07.08.20
Повідомлень: 1315

2020-05-26 23:11  
Kladovest - Ignitiate (2016) [] | Black Metal

Kladovest - Ignitiate (2016) [] | Black Metal


Стиль: Black Metal
Країна, місто: Україна, Днiпро
Видавець: No Colours
Виконавці:
Дмитро K. - всі інструменти
Thurios - вокал (Astrofaes, Drudkh, Hate Forest)
Олександр A. - лірика, оформлення
Пісні:
    1. Hermit Dungeons - 09:42
    2. Beneath the Reaper Shadow - 09:10
    3. Shore of Ancient Moons - 10:45
    4. Carved in Scars... - 09:23

Тривалість: 00:39:00
Мова: англiйська
Аудіо-кодек:
Бітрейт: 904 кб/с
Джерело: трекер
Додаткова інформація:
лог якостi

Exact Audio Copy V1.5 from 20. February 2020

EAC extraction logfile from 18. May 2020, 19:43

Kladovest / Ignitiate

Used drive : TSSTcorpCDDVDW SH-224FB Adapter: 1 ID: 0

Read mode : Secure
Utilize accurate stream : Yes
Defeat audio cache : Yes
Make use of C2 pointers : No

Read offset correction : 6
Overread into Lead-In and Lead-Out : No
Fill up missing offset samples with silence : Yes
Delete leading and trailing silent blocks : No
Null samples used in CRC calculations : Yes
Used interface : Native Win32 interface for Win NT & 2000

Used output format : Internal WAV Routines
Sample format : 44.100 Hz; 16 Bit; Stereo

TOC of the extracted CD

Track | Start | Length | Start sector | End sector
---------------------------------------------------------
1 | 0:00.00 | 9:42.03 | 0 | 43652
2 | 9:42.03 | 9:10.18 | 43653 | 84920
3 | 18:52.21 | 10:45.09 | 84921 | 133304
4 | 29:37.30 | 9:23.04 | 133305 | 175533

Range status and errors

Selected range

Filename C:\Users\Admin\Downloads\! \Kladovest - Ignitiate (2016).wav

Peak level 100.0 %
Extraction speed 2.7 X
Range quality 100.0 %
Test CRC 7F105CD3
Copy CRC 7F105CD3
Copy OK

No errors occurred

AccurateRip summary

Track 1 accurately ripped (confidence 2) [82DDB1C2] (AR v2)
Track 2 accurately ripped (confidence 2) [2FB7E308] (AR v2)
Track 3 accurately ripped (confidence 2) [2E49E289] (AR v2)
Track 4 accurately ripped (confidence 2) [E5C322ED] (AR v2)

All tracks accurately ripped

End of status report

---- CUETools DB Plugin V2.1.6

[CTDB TOCID: FleqYSWOK_IPzI8G5dyGv8xYaLg-] found
Submit result: already submitted
Track | CTDB Status
1 | (3/3) Accurately ripped
2 | (3/3) Accurately ripped
3 | (3/3) Accurately ripped
4 | (3/3) Accurately ripped
(.CUE)
REM DATE 2016
REM DISCID 34092404
REM COMMENT "Standard jewel case edition. Comes with an 8-page booklet."
PERFORMER "Kladovest"
TITLE "Ignitiate"
REM COMPOSER ""
REM DISCNUMBER 1
REM TOTALDISCS 1
FILE "Kladovest - Ignitiate." WAVE
TRACK 01 AUDIO
TITLE "Hermit Dungeons"
PERFORMER "Kladovest"
REM COMPOSER ""
INDEX 01 00:00:00
TRACK 02 AUDIO
TITLE "Beneath The Reaper Shadow"
PERFORMER "Kladovest"
REM COMPOSER ""
INDEX 01 09:42:03
TRACK 03 AUDIO
TITLE "Shore Of Ancient Moons"
PERFORMER "Kladovest"
REM COMPOSER ""
INDEX 01 18:52:21
TRACK 04 AUDIO
TITLE "Carved In Scars..."
PERFORMER "Kladovest"
REM COMPOSER ""
INDEX 01 29:37:30


Якщо Ви справді бажаєте підтримати українське - після прослуховування, якщо музика вам сподобалась, придбайте ліцензійний диск. Підтримаймо вітчизняних виконавців!


Срібний реліз (на рейтинг впливає 50% завантаженого)
 Трекер:    Зареєстрований   

Завантажити / скачати українську музику



відео для новачків



 Зареєстрований:   2020-05-26 23:11
 Розмір:   285 MB 
 Оцінка музики:   10/10 (Голосів: 3)
   
kolpavel 
VIP


З нами з: 04.05.14
Востаннє: 07.08.20
Повідомлень: 1315

2020-05-26 23:13  
Lev 
VIP


З нами з: 14.10.09
Востаннє: 07.08.20
Повідомлень: 1854

2020-07-26 14:20  
Вокал тут (і на LP "Winterwards" також) не Туріоса, a Gjenfard'a.
Це легко перевірити як мінімум тут:
https://www.metal-archives.com/albums/Kladovest/Ignitiate/604776

І станьте хтось на роздачу, це один із найкращих українських метал-альбомів взагалі.
Прожив із ним важливий період, шикарна меланхолія.

Ваш часовий пояс: GMT + 2 Години

Нова тема   Відповісти