Король Дроздобород / König Drosselbart (2008) 1080p Ukr/Ger

Нові коментарі

Нова тема   Відповісти
Автор Повідомлення
Anonymous 







2020-05-26 21:52  
Король Дроздобород / König Drosselbart (2008) 1080p Ukr/Ger

Король Дроздобород / König Drosselbart (2008) 1080p Ukr/Ger
DVD



Жанр: сімейний, казка, романтичний
Країна: Німеччина



Кінокомпанія: Hessischer Rundfunk (HR), Kinderfilm
Режисер: Сібіла Тафель
Актори: Ясмін Швірс, Кен Дукен, Феліцітас Волль, Хуберт Мульцер, Артур Браус, Маріза Леоні Бах, Тімо Якобс, Мануель Кортез

Сюжет:
«Король Дроздобород» - саме так Ізабелла насміхається над принцем Річардом. Її батько хоче, щоб вона вибрала собі нареченого, але горда і норовлива принцеса висміює всіх кавалерів, яких їй пропонують. Щоб покарати дочку, батько вирішує видати її заміж за першого-ліпшого чоловіка, який увійде в замок.


Тривалість: 00:58:35
Якість:
Відео:
кодек:
розмір кадру: 1920 х 1080
бітрейт: 6499 кб/с

Аудіо # 1:
мова: українська
переклад: багатоголосий закадровий
кодек: 2.0
бітрейт: 192 кб/с

Аудіо # 2:
мова: німецька
переклад: оригінал
кодек: 2.0
бітрейт: 192 кб/с

Джерело озвучення:

За запис звуку з ТБ дякуємо пану РОМЕО
Звук взято з релізу
Info
Код:
General
Unique ID                                : 49315474027278453994512025002810885889 (0x2519D097B8931E42C0F6044BAA114701)
Complete name                            : König Drosselbart (2008) 1080p [Ukr_Ger] [Hurtom].
Format                                   :
Format version                           : Version 4
File size                                : 2.82 GiB
Duration                                 : 58 min 35 s
Overall bit rate mode                    : Variable
Overall bit rate                         : 6 885 kb/s
Movie name                               : Король Дроздобород (2008)
Encoded date                             : UTC 2020-05-26 17:12:28
Writing application                      : v30.1.0 ('Forever And More') 64-bit
Writing library                          : libebml v1.3.6 + v1.4.9
Cover                                    : Yes
Attachments                              : cover.jpg

Video
ID                                       : 1
Format                                   : AVC
Format/Info                              : Advanced Video Codec
Format profile                           : [email protected]
Format settings                          : CABAC / 2 Ref Frames
Format settings, CABAC                   : Yes
Format settings, ReFrames                : 2 frames
Codec ID                                 : V_MPEG4/ISO/AVC
Duration                                 : 58 min 35 s
Bit rate mode                            : Variable
Bit rate                                 : 6 499 kb/s
Maximum bit rate                         : 8 200 kb/s
Width                                    : 1 920 pixels
Height                                   : 1 080 pixels
Display aspect ratio                     : 16:9
Frame rate mode                          : Constant
Frame rate                               : 50.000 FPS
Color space                              : YUV
Chroma subsampling                       : 4:2:0
Bit depth                                : 8 bits
Scan type                                : Progressive
Bits/(Pixel*Frame)                       : 0.063
Stream size                              : 2.66 GiB (94%)
Language                                 : German
Default                                  : Yes
Forced                                   : No

Audio #1
ID                                       : 2
Format                                   : AC-3
Format/Info                              : Audio Coding 3
Commercial name                          : Dolby Digital
Codec ID                                 : A_AC3
Duration                                 : 58 min 35 s
Bit rate mode                            : Constant
Bit rate                                 : 192 kb/s
Channel(s)                               : 2 channels
Channel layout                           : L R
Sampling rate                            : 48.0 kHz
Frame rate                               : 31.250 FPS (1536 SPF)
Bit depth                                : 16 bits
Compression mode                         : Lossy
Stream size                              : 80.5 MiB (3%)
Language                                 : Ukrainian
Service kind                             : Complete Main
Default                                  : Yes
Forced                                   : Yes

Audio #2
ID                                       : 3
Format                                   : LC
Format/Info                              : Advanced Audio Codec Low Complexity
Codec ID                                 : A_AAC-2
Duration                                 : 58 min 35 s
Bit rate                                 : 192 kb/s
Channel(s)                               : 2 channels
Channel layout                           : L R
Sampling rate                            : 48.0 kHz
Frame rate                               : 46.875 FPS (1024 SPF)
Compression mode                         : Lossy
Stream size                              : 79.1 MiB (3%)
Language                                 : German
Default                                  : No
Forced                                   : No

Скріншоти





Джерело:


 Трекер:    Зареєстрований   

Завантажити / скачати фільм українською



відео для новачків



 Зареєстрований:   2020-05-26 21:52
 Розмір:   2.82 GB 
 Оцінка фільму:   9.7/10 (Голосів: 6)
   
Інші релізи
Luzohid 
Свій


З нами з: 14.09.15
Востаннє: 23.09.20
Повідомлень: 93

2020-05-31 18:21  
Гарно знято, треба якось ще пошукати подібне
А як знайти всі казки, який запит давати в пошук?

Ваш часовий пояс: GMT + 2 Години

Нова тема   Відповісти