Шестеро весь світ обійдуть / Sechse kommen durch die ganze Welt (2014) 1080p Ukr/Ger

Нові коментарі

Нова тема   Відповісти
Автор Повідомлення
Anonymous 







2020-05-26 17:24  
Шестеро весь світ обійдуть / Sechse kommen durch die ganze Welt (2014) 1080p Ukr/Ger

Шестеро весь світ обійдуть / Sechse kommen durch die ganze Welt (2014) 1080p Ukr/Ger
DVD



Жанр: сімейний, казка
Країна: Німеччина



Кінокомпанія: Askania Media Filmproduktion GmbH, ProSaar Medienproduktion
Режисер: Уве Янсон
Актори: Себастіан Беццель, Рафаель Гарайзен, Лаура Марія Хайд, Тоніо Аранго, Максиміліан Герлінгер, Еміль Райнке, Ніколь Мерседес Мюллер, Антон Рубцов, Алісса Вільмса

Сюжет:
Музикант Яспер і принцеса Елла люблять один одного, але злий і примхливий король не хоче видавати свою дочку заміж за бідного музиканта. Обманом він розлучає закоханих, і лише п'ятеро незвичайних друзів зможуть допомогти Ясперу повернути його кохану.


Тривалість: 00:58:57
Якість:
Відео:
кодек:
розмір кадру: 1920 х 1080
бітрейт: 6486 кб/с

Аудіо # 1:
мова: українська
переклад: професійний дубльований
кодек: 2.0
бітрейт: 256 кб/с

Аудіо # 2:
мова: німецька
переклад: оригінал
кодек: 2.0
бітрейт: 192 кб/с

Джерело озвучення:
Info
Код:
General
Unique ID                                : 318981172291628341673131056445886517466 (0xEFF98A0528AFFD7C8FF82AC0EB9B50DA)
Complete name                            : Sechse kommen durch die ganze Welt (2014) 1080p [Ukr_Ger] [Hurtom].
Format                                   :
Format version                           : Version 4
File size                                : 2.86 GiB
Duration                                 : 58 min 57 s
Overall bit rate mode                    : Variable
Overall bit rate                         : 6 935 kb/s
Movie name                               : Шестеро весь світ обійдуть (2014)
Encoded date                             : UTC 2020-05-26 13:49:08
Writing application                      : v30.1.0 ('Forever And More') 64-bit
Writing library                          : libebml v1.3.6 + v1.4.9
Cover                                    : Yes
Attachments                              : cover.jpg

Video
ID                                       : 1
Format                                   : AVC
Format/Info                              : Advanced Video Codec
Format profile                           : [email protected]
Format settings                          : CABAC / 2 Ref Frames
Format settings, CABAC                   : Yes
Format settings, ReFrames                : 2 frames
Codec ID                                 : V_MPEG4/ISO/AVC
Duration                                 : 58 min 56 s
Bit rate mode                            : Variable
Bit rate                                 : 6 486 kb/s
Maximum bit rate                         : 8 200 kb/s
Width                                    : 1 920 pixels
Height                                   : 1 080 pixels
Display aspect ratio                     : 16:9
Frame rate mode                          : Constant
Frame rate                               : 50.000 FPS
Color space                              : YUV
Chroma subsampling                       : 4:2:0
Bit depth                                : 8 bits
Scan type                                : Progressive
Bits/(Pixel*Frame)                       : 0.063
Stream size                              : 2.67 GiB (94%)
Language                                 : German
Default                                  : Yes
Forced                                   : No

Audio #1
ID                                       : 2
Format                                   : LC
Format/Info                              : Advanced Audio Codec Low Complexity
Codec ID                                 : A_AAC-2
Duration                                 : 58 min 57 s
Bit rate                                 : 256 kb/s
Channel(s)                               : 2 channels
Channel layout                           : L R
Sampling rate                            : 44.1 kHz
Frame rate                               : 43.066 FPS (1024 SPF)
Compression mode                         : Lossy
Stream size                              : 108 MiB (4%)
Language                                 : Ukrainian
Default                                  : Yes
Forced                                   : Yes

Audio #2
ID                                       : 3
Format                                   : LC
Format/Info                              : Advanced Audio Codec Low Complexity
Codec ID                                 : A_AAC-2
Duration                                 : 58 min 56 s
Bit rate                                 : 192 kb/s
Channel(s)                               : 2 channels
Channel layout                           : L R
Sampling rate                            : 48.0 kHz
Frame rate                               : 46.875 FPS (1024 SPF)
Compression mode                         : Lossy
Stream size                              : 79.6 MiB (3%)
Language                                 : German
Default                                  : No
Forced                                   : No

Скріншоти





Джерело:


 Трекер:    Зареєстрований   

Завантажити / скачати фільм українською



відео для новачків



 Зареєстрований:   2020-05-26 17:24
 Розмір:   2.86 GB 
 Оцінка фільму:   7.6/10 (Голосів: 5)
   
Ваш часовий пояс: GMT + 2 Години

Нова тема   Відповісти