Геошторм / Geostorm (2017) AVC [Open Matte]

Нові коментарі

Нова тема   Відповісти
Автор Повідомлення
Anonymous 







2020-05-26 16:09  
Геошторм / Geostorm (2017) AVC [Open Matte]

Геошторм / Geostorm (2017) AVC [Open Matte]


Жанр: фантастика, бойовик, трилер
Країна: США



Кінокомпанія: Warner Bros., Electric Entertainment, RatPac-Dune Entertainment, Skydance Productions, Jerry Bruckheimer Films
Режисер: Дін Девлін / Dean Devlin
Актори: Джерард Батлер / Gerard Butler, Джим Стьорджес / Jim Sturgess, Еббі Корніш / Abbie Cornish, Ед Гаріс / Ed Harris, Енді Ґарсія / Andy Garcia, Роберт Шіен / Robert Sheehan, Зазі Бітц / Zazie Beetz, Таліта Бейтман / Talitha Bateman, Деніел Ву / Daniel Wu, Річард Шифф / Richard Schiff та інші

Сюжет:
На Землі сталася серія несподіваних страшних стихійних лих, що забрали тисячі, а то й мільйони жертв. Лідери всіх держав вирішили разом боротися проти цього і створили систему супутників, які можуть контролювати клімат на планеті. Це має вберегти людей від будь-яких природних катастроф. Але щось пішло не так...
Офіційний український трейлер:

Рейтинг MPAA: PG-13 - дітям до 13 років перегляд не бажаний
Вікова категорія: 12+
Тривалість: 01:49:14
Якість: AVC [Amazon, Open Matte] - Порівняння наповнення кадру з Blu-Ray
Відео:
кодек:
розмір кадру: 1024 х 576
бітрейт: 2570 кб/с

Аудіо:
мова: українська
переклад: професійний дубльований | студія Postmodern
кодек: 5.1
бітрейт: 384 кб/с
Інформація про дубляж
Переклад: Олег Колесніков
Режисер дубляжу: Павло Скороходько
Звукорежисер: Юрій Антонов
Перезапис: Юрій Антонов, Максим Пономарчук
Ролі дублювали: Михайло Жонін, Ірина Ткаленко, Наталя Романько-Кисельова, Вероніка Лук'яненко, Олександр Ігнатуша, Анна Соболєва, Олег Стальчук, Михайло Федорченко, Дмитро Бузинський та інші

Фільм дубльовано компанією Postmodern
Субтитри:
мова: українська (форсовані)
тип: програмні (м'які)
формат: *.srt

Збережено оригінальні розділи
Info та log
Код:
Complete name               : Geostorm (2017) [Ukr] AVC AMZN OpenMatte [Hurtom].
Format                      :
Format version              : Version 4
File size                   : 2.26 GiB
Duration                    : 1 h 49 min
Overall bit rate            : 2 956 kb/s
Movie name                  : Геошторм / Geostorm (2017) [Ukr] AVC AMZN OpenMatte [Hurtom]
Released date               : 2017
Encoded date                : UTC 2020-05-26 14:12:29
Writing application         : v46.0.0 ('No Deeper Escape') 64-bit
Writing library             : libebml v1.3.10 + v1.5.2
Cover                       : Yes
Comment                     : http://www.imdb.com/title/tt1981128/
Attachments                 : cover.jpg
ARTIST                      : Джерард Батлер / Gerard Butler, Джим Стьорджес / Jim Sturgess, Еббі Корніш / Abbie Cornish, Ед Гаріс / Ed Harris, Енді Ґарсія / Andy Garcia, Роберт Шиен / Robert Sheehan, Зазі Бітц / Zazie Beetz, Таліта Бейтман / Talitha Bateman, Деніел Ву / Daniel Wu, Річард Шифф / Richard Schiff та інші
DIRECTOR                    : Дін Девлін / Dean Devlin
GENRE                       : фантастика, бойовик, трилер
SYNOPSIS                    : На Землі сталася серія несподіваних страшних стихійних лих, що забрали тисячі, а то й мільйони жертв. Лідери всіх держав вирішили разом боротися проти цього і створили систему супутників, які можуть контролювати клімат на планеті. Це має вберегти людей від будь-яких природних катастроф. Але щось пішло не так...
Url                         : https://toloka.to/t111176

Video
ID                          : 1
Format                      : AVC
Format/Info                 : Advanced Video Codec
Format profile              : [email protected]
Format settings             : CABAC / 10 Ref Frames
Format settings, CABAC      : Yes
Format settings, Reference  : 10 frames
Codec ID                    : V_MPEG4/ISO/AVC
Duration                    : 1 h 49 min
Bit rate                    : 2 570 kb/s
Width                       : 1 024 pixels
Height                      : 576 pixels
Display aspect ratio        : 16:9
Frame rate mode             : Constant
Frame rate                  : 23.976 (24000/1001) FPS
Color space                 : YUV
Chroma subsampling          : 4:2:0
Bit depth                   : 8 bits
Scan type                   : Progressive
Bits/(Pixel*Frame)          : 0.182
Stream size                 : 1.96 GiB (87%)
Title                       : Геошторм / Geostorm (2017) AVC AMZN OpenMatte [-=DoMiNo=-]
Writing library             : core 155 r2901M 7d0ff22
Encoding settings           : cabac=1 / ref=10 / deblock=1:-3:-3 / analyse=0x3:0x133 / me=umh / subme=11 / psy=1 / psy_rd=1.00:0.10 / mixed_ref=1 / me_range=32 / chroma_me=1 / trellis=2 / 8x8dct=1 / cqm=0 / deadzone=21,11 / fast_pskip=0 / chroma_qp_offset=-3 / threads=6 / lookahead_threads=1 / sliced_threads=0 / nr=0 / decimate=1 / interlaced=0 / bluray_compat=0 / constrained_intra=0 / bframes=10 / b_pyramid=2 / b_adapt=2 / b_bias=0 / direct=3 / weightb=1 / open_gop=0 / weightp=2 / keyint=240 / keyint_min=24 / scenecut=40 / intra_refresh=0 / rc_lookahead=50 / rc=crf / mbtree=1 / crf=18.0 / qcomp=0.60 / qpmin=0 / qpmax=69 / qpstep=4 / ip_ratio=1.40 / aq=3:0.90
Language                    : English
Default                     : Yes
Forced                      : No
Color range                 : Limited
Color primaries             : BT.709
Transfer characteristics    : BT.709
Matrix coefficients         : BT.709

Audio
ID                          : 2
Format                      : AC-3
Format/Info                 : Audio Coding 3
Commercial name             : Dolby Digital
Codec ID                    : A_AC3
Duration                    : 1 h 49 min
Bit rate mode               : Constant
Bit rate                    : 384 kb/s
Channel(s)                  : 6 channels
Channel layout              : L R C LFE Ls Rs
Sampling rate               : 48.0 kHz
Frame rate                  : 31.250 FPS (1536 SPF)
Compression mode            : Lossy
Stream size                 : 300 MiB (13%)
Title                       : Dub [Postmodern, iTunes] 5.1 384 Kbps
Language                    : Ukrainian
Service kind                : Complete Main
Default                     : Yes
Forced                      : No

Text
ID                          : 3
Format                      : UTF-8
Codec ID                    : S_TEXT/UTF8
Codec ID/Info               : UTF-8 Plain Text
Duration                    : 1 h 40 min
Bit rate                    : 5 b/s
Count of elements           : 73
Stream size                 : 3.79 KiB (0%)
Title                       : Ukr Forced
Language                    : Ukrainian
Default                     : Yes
Forced                      : Yes

Menu
00:00:00.000                : en:Chapter 01
00:09:21.978                : en:Chapter 02
00:19:14.653                : en:Chapter 03
00:28:15.944                : en:Chapter 04
00:37:46.264                : en:Chapter 05
00:47:15.249                : en:Chapter 06
00:56:55.829                : en:Chapter 07
01:06:25.106                : en:Chapter 08
01:15:56.635                : en:Chapter 09
01:25:33.545                : en:Chapter 10
01:35:04.866                : en:Chapter 11
01:42:36.775                : en:Chapter 12


Код:
info: frame I:1673 Avg QP:14.00 size: 99081
info: frame P:37298 Avg QP:18.10 size: 27233
info: frame B:118157 Avg QP:20.49 size: 7819
info: consecutive B-frames: 3.5% 4.3% 8.8% 27.3% 15.3% 28.1% 5.5% 4.1% 2.6% 0.3% 0.2%


Джерело: &


 Трекер:    Зареєстрований   

Завантажити / скачати фільм українською



відео для новачків



 Зареєстрований:   2020-05-26 20:52
 Розмір:   2.26 GB 
 Оцінка фільму:   8.7/10 (Голосів: 11)
 ЗАЛИШАЙТЕСЬ ЯКОМОГА ДОВШЕ НА РОЗДАЧІ! ЗАВАНТАЖИВ САМ - ДАЙ ЗАВАНТАЖИТИ ІНШИМ!
   
Інші релізи
   Геошторм / Geostorm (2017) Remux 1080p Ukr/Eng | Sub Eng staf777  3 / 0   26.1 GB   2020-06-09 14:04 
   Геошторм / Geostorm (2017) 1080p [Open Matte] Ukr/Eng | Sub Eng igor911  9 / 0   9.32 GB   2020-05-26 18:20 
   Геошторм / Geostorm (2017) 720p Ukr/Eng | Sub Eng igor911  8 / 0   4.47 GB   2020-05-26 15:00 
   Геошторм / Geostorm (2017) AVC Ukr/Eng | Sub Eng igor911  11 / 0   2.18 GB   2020-05-26 14:19 
   Геошторм / Geostorm (2017) 1080p Ukr/Eng | Sub Eng -Star-Lord-  2 / 0   9.3 GB   2019-11-27 14:17 
   Геошторм / Geostorm (2017) 1080p (60 fps) Ukr/Eng | Sub Eng Drool  1 / 0   13 GB   2018-08-23 14:33 
   Геошторм / Geostorm (2017) Covenant  6 / 0   1.45 GB   2018-01-21 21:04 
   Геошторм / Geostorm (2017) 1080p Ukr/Eng | Sub Eng Electroz  9 / 0   8.13 GB   2018-01-19 17:52 
bot 
робот


З нами з: 30.09.07
Востаннє: 26.05.05
Повідомлень: 25026

2020-05-26 20:52  
Тему перенесено з Анонси релізів до форуму Фільми


igor911

Av_m 
Новенький


З нами з: 25.03.17
Востаннє: 09.07.20
Повідомлень: 23

2020-05-26 22:20  
Незважаючи на численні моменти з фантастичною фізикою, фільм сподобався усієї родині!
bacs75 
Новенький


З нами з: 22.11.12
Востаннє: 12.06.20
Повідомлень: 2

2020-05-30 23:08  
Єдиний сумний момент, що супутник на Москвою теж вимкнули. А як добре горіло!
Ваш часовий пояс: GMT + 2 Години

Нова тема   Відповісти