Вампірина / Vampirina (Сезон 2) (2019) 720p Ukr/Eng

Нові коментарі

Нова тема   Відповісти
Автор Повідомлення
sergiyko.5 
Забанено
Забанено


З нами з: 25.02.16
Востаннє: 29.10.20
Повідомлень: 3648

2020-05-26 15:33  
Всі одноіменні релізи на трекері

Вампірина / Vampirina (Сезон 2) (2019) 720p Ukr/Eng


Вампірина / Vampirina (Сезон 2) (2019) 720p Ukr/Eng

Жанр: мультфільм, мюзикл, сімейний, фентезі
Країна: США, Ірландія
Режисер: Ехуд Ландсберг, Мартін Джонмарк, Ніккі Фелан
Актори: Лорен Грем, Ізабелла Крамп, Джордан Алекса Девіс, Ванда Сайкс, Мітчел Вітфілд

Сюжет:
Мультфільм розповідає про юну дівчинку по імені Вампірина, яка стикається з радощами і випробуваннями, коли її родина переїжджає з Трансільванії в Пенсільванію. Тепер її сім'я є власниками готелю для чарівних створінь, де дівчинку-вампіршу чекає багато непередбачуваних і незвичайних пригод. Вампірина виявляється в новому для себе світі - світі людей, де з подивом знаходить в ньому багато подібностей з рідним світом вампірів.




Тривалість: 1 серія: 24:02 (цілком серій: 25 з 25)
Якість:

Відео: кодек: розмір кадру: 1280 х 720 бітрейт: ~ 3 500 кб/с
Аудіо 1: мова: українська переклад: професійний дубльований кодек: 2.0 бітрейт: 192 кб/с
Озвучення:
Аудіо 2: мова: англійська переклад: оригінал кодек: 2.0 бітрейт: 128 кб/с
Перелік серій
01 Vampire for President-Where's Wolfie
02 The Woodsie Way-TNN
03 Franken-Wedding-Bat Hair Day
04 Baby Dragon-Gloomates
05 The Ghoul Next Door-The Scare B and Vee
06 The Birthday Broom-Vee Takes The Court
07 Scare-itage Day-The Great Egg Scramble
08 Desserter Mystery-Mirror Mirror
09 Beach Night-Gregoria Takes Flight
10 The Big Bite-Ghost Hosts
11 The Boo Boys Are Back-Pixie Problem
12 Face the Music-Fright at the Museum
13 Vamp-iversary-The Wolf Boy
14 Bat Got Your Tongue-The Haunted Theater
15 Trick or Treaters-Play It Again Vee
16 Jumping Jack-o-Lanterns-Freeze Our Guest
17 The Vamp-Opera-This Haunted House Is Closed
18 Day of the Dead-As You Wish
19 The Scare Council-Taking Scare of Business
20 Hauntley Girls-The Not So Haunted House
21 A Gargoyle Carol-Deliver-eeek
22 The Great Esmeralda-Frog's Breath
23 Oh Brother-The Search for Bigfoot
24 Au Revoir Remy-The School Scare Fair
25 Ghoul Guides Save the Day
Про файл:
General
Unique ID : 175504979329295061139140667431865941919 (0x8409078DD500BFB488CF1E881241FF9F)
Complete name : D:\Documents\Torrents\MULTSER_2\Vampirina S02 720p \S02E01.Vampire for President-Where’s Wolfie.720p..
Format :
Format version : Version 4
File size : 625 MiB
Duration : 24 min 1 s
Overall bit rate : 3 639 kb/s
Movie name : Vampirina S02 720p by sergiyko
Encoded date : UTC 2020-05-26 12:22:57
Writing application : v46.0.0 ('No Deeper Escape') 64-bit
Writing library : libebml v1.3.10 + v1.5.2
Cover : Yes
Attachments : cover.jpg

Video
ID : 1
Format : AVC
Format/Info : Advanced Video Codec
Format profile : [email protected]
Format settings : CABAC / 2 Ref Frames
Format settings, CABAC : Yes
Format settings, Reference : 2 frames
Codec ID : V_MPEG4/ISO/AVC
Duration : 24 min 1 s
Bit rate : 3 360 kb/s
Width : 1 280 pixels
Height : 720 pixels
Display aspect ratio : 16:9
Frame rate mode : Constant
Frame rate : 23.976 (24000/1001) FPS
Color space : YUV
Chroma subsampling : 4:2:0
Bit depth : 8 bits
Scan type : Progressive
Bits/(Pixel*Frame) : 0.152
Stream size : 570 MiB (91%)
Title : S02E01.Vampire for President-Where’s Wolfie
Writing library : core 148 r2579M 73ae2d1
Encoding settings : cabac=1 / ref=2 / deblock=1:0:0 / analyse=0x3:0x113 / me=hex / subme=2 / psy=1 / psy_rd=1.00:0.00 / mixed_ref=0 / me_range=16 / chroma_me=1 / trellis=0 / 8x8dct=1 / cqm=0 / deadzone=21,11 / fast_pskip=1 / chroma_qp_offset=0 / threads=4 / lookahead_threads=1 / sliced_threads=0 / nr=250 / decimate=1 / interlaced=0 / bluray_compat=0 / stitchable=1 / constrained_intra=0 / bframes=0 / weightp=1 / keyint=250 / keyint_min=25 / scenecut=40 / intra_refresh=0 / rc_lookahead=10 / rc=2pass / mbtree=1 / bitrate=3360 / ratetol=1.0 / qcomp=0.60 / qpmin=5 / qpmax=69 / qpstep=4 / cplxblur=20.0 / qblur=0.5 / ip_ratio=1.40 / aq=1:1.00
Language : English
Default : Yes
Forced : No

Audio #1
ID : 2
Format : AC-3
Format/Info : Audio Coding 3
Commercial name : Dolby Digital
Codec ID : A_AC3
Duration : 24 min 1 s
Bit rate mode : Constant
Bit rate : 192 kb/s
Channel(s) : 2 channels
Channel layout : L R
Sampling rate : 48.0 kHz
Frame rate : 31.250 FPS (1536 SPF)
Compression mode : Lossy
Stream size : 33.0 MiB (5%)
Title : DUB 2ch | ПлюсПлюс
Language : Ukrainian
Service kind : Complete Main
Default : Yes
Forced : Yes

Audio #2
ID : 3
Format : LC SBR
Format/Info : Advanced Audio Codec Low Complexity with Spectral Band Replication
Commercial name : HE-
Format settings : Implicit
Codec ID : A_AAC-2
Duration : 24 min 1 s
Bit rate : 127 kb/s
Channel(s) : 2 channels
Channel layout : L R
Sampling rate : 48.0 kHz
Frame rate : 23.438 FPS (2048 SPF)
Compression mode : Lossy
Stream size : 21.8 MiB (3%)
Title : Original
Language : English
Default : No
Forced : No
Скріншоти:


Запис/зведення: sergiyko


Бронзовий реліз (на рейтинг впливає 75% завантаженого)
 Трекер:    Зареєстрований   

Завантажити / скачати мультфільм українською



відео для новачків



 Зареєстрований:   2020-05-29 22:07
 Розмір:   14.53 GB 
 Оцінка мультсеріалу:   10/10 (Голосів: 13)
   
sergiyko.5 
Забанено
Забанено


З нами з: 25.02.16
Востаннє: 29.10.20
Повідомлень: 3648

2020-05-29 22:08  
Торент оновлено. Замінено 14 серію з кращим відео та без лого.
Ваш часовий пояс: GMT + 2 Години

Нова тема   Відповісти