Особистий охоронець 2. Відважний самурай / Tsubaki Sanjûrô (1962) 1080p Ukr/Jpn | sub Eng/Multi

Нові коментарі

Нова тема   Відповісти
Автор Повідомлення
Anonymous 







2020-05-26 01:04  
Особистий охоронець 2. Відважний самурай / Tsubaki Sanjûrô (1962) 1080p Ukr/Jpn | sub Eng/Multi

Особистий охоронець 2. Відважний самурай / Tsubaki Sanjûrô (1962) 1080p Ukr/Jpn | sub Eng/Multi


Жанр: екшн, комедія, кримінальний
Країна: Японія



Кінокомпанія: Toho Company, Kurosawa Production Co.
Режисер: Акіра Куросава
Актори: Тосіро Міфуне, Тацуя Накадай, Кейдзу Кабаясі, Юдзи Каяма, Рейко Дан

Сюжет:
Екранізація романа Сюгоро Ямамото. Умовно цей фільм можна вважати продовженням «Охоронця». Все той же затрапезного вигляду самурай (Міфуне просто прекрасний у цій ролі), любитель випити, але майстерно володіє мечем, тепер допомагає дев’яти чесним воїнам провінційного містечка отримати перемогу над корумпованими лиходіями, що рвуться до влади над кланом.


Тривалість: 01:35:57
Якість:
Відео:
кодек:
розмір кадру: 1920 х 816
бітрейт: 8956 кб/с

Аудіо # 1:
мова: українська
переклад: багатоголосий закадровий
кодек: 2.0
бітрейт: 192 кб/с

Аудіо # 2:
мова: японська
переклад: оригінал
кодек: -HD МА 3.0
бітрейт: 2173 кб/с

Джерело озвучення:
Компанія КіТ (телеканал "Чернівці")
За запис звуку з ТБ дякуємо POMEO і madara

Субтитри:
мова: англійська
тип: програмні (м'які)
формат: *.sub

Субтитри:
мова: чеська, французька, італійська, румунська, іспанська
тип: програмні (м'які)
формат: *.srt
Info
Код:
General
Unique ID                                : 206272574260417157082909797396131004715 (0x9B2EA71A7415C0E5A5609178DD1EC12B)
Complete name                            : Tsubaki Sanjuro (1962) 1080p [Ukr_Jpn] [Hurtom].
Format                                   :
Format version                           : Version 4
File size                                : 7.59 GiB
Duration                                 : 1 h 35 min
Overall bit rate mode                    : Variable
Overall bit rate                         : 11.3 Mb/s
Movie name                               : Особистий охоронець 2. Відважний самурай (1962)
Encoded date                             : UTC 2020-05-25 21:12:38
Writing application                      : v30.1.0 ('Forever And More') 64-bit
Writing library                          : libebml v1.3.6 + v1.4.9
Cover                                    : Yes
Attachments                              : cover.jpg

Video
ID                                       : 1
Format                                   : AVC
Format/Info                              : Advanced Video Codec
Format profile                           : [email protected]
Format settings                          : CABAC / 5 Ref Frames
Format settings, CABAC                   : Yes
Format settings, ReFrames                : 5 frames
Codec ID                                 : V_MPEG4/ISO/AVC
Duration                                 : 1 h 35 min
Bit rate                                 : 8 956 kb/s
Width                                    : 1 920 pixels
Height                                   : 816 pixels
Display aspect ratio                     : 2.35:1
Frame rate mode                          : Constant
Frame rate                               : 23.976 (24000/1001) FPS
Color space                              : YUV
Chroma subsampling                       : 4:2:0
Bit depth                                : 8 bits
Scan type                                : Progressive
Bits/(Pixel*Frame)                       : 0.238
Stream size                              : 6.00 GiB (79%)
Writing library                          : core 120
Encoding settings                        : cabac=1 / ref=5 / deblock=1:-3:-3 / analyse=0x3:0x113 / me=umh / subme=7 / psy=1 / psy_rd=1.00:0.00 / mixed_ref=1 / me_range=24 / chroma_me=1 / trellis=1 / 8x8dct=1 / cqm=0 / deadzone=21,11 / fast_pskip=1 / chroma_qp_offset=-2 / threads=4 / sliced_threads=0 / nr=0 / decimate=1 / interlaced=0 / bluray_compat=0 / constrained_intra=0 / bframes=4 / b_pyramid=2 / b_adapt=2 / b_bias=0 / direct=1 / weightb=1 / open_gop=0 / weightp=2 / keyint=240 / keyint_min=24 / scenecut=40 / intra_refresh=0 / rc_lookahead=50 / rc=2pass / mbtree=1 / bitrate=8956 / ratetol=1.0 / qcomp=0.60 / qpmin=3 / qpmax=69 / qpstep=4 / cplxblur=20.0 / qblur=0.5 / vbv_maxrate=45000 / vbv_bufsize=30000 / nal_hrd=none / ip_ratio=1.40 / aq=1:1.00
Language                                 : Japanese
Default                                  : Yes
Forced                                   : No
Color range                              : Limited
Color primaries                          : BT.709
Transfer characteristics                 : BT.709
Matrix coefficients                      : BT.709

Audio #1
ID                                       : 2
Format                                   : AC-3
Format/Info                              : Audio Coding 3
Commercial name                          : Dolby Digital
Codec ID                                 : A_AC3
Duration                                 : 1 h 35 min
Bit rate mode                            : Constant
Bit rate                                 : 192 kb/s
Channel(s)                               : 2 channels
Channel layout                           : L R
Sampling rate                            : 48.0 kHz
Frame rate                               : 31.250 FPS (1536 SPF)
Bit depth                                : 16 bits
Compression mode                         : Lossy
Stream size                              : 132 MiB (2%)
Language                                 : Ukrainian
Service kind                             : Complete Main
Default                                  : Yes
Forced                                   : Yes

Audio #2
ID                                       : 3
Format                                   : XLL
Format/Info                              : Digital Theater Systems
Commercial name                          : -HD Master Audio
Codec ID                                 : A_DTS
Duration                                 : 1 h 35 min
Bit rate mode                            : Variable
Bit rate                                 : 2 173 kb/s
Channel(s)                               : 3 channels
Channel layout                           : C L R
Sampling rate                            : 48.0 kHz
Frame rate                               : 93.750 FPS (512 SPF)
Bit depth                                : 24 bits
Compression mode                         : Lossless
Stream size                              : 1.46 GiB (19%)
Language                                 : Japanese
Default                                  : No
Forced                                   : No

Text #1
ID                                       : 4
Format                                   : VobSub
Muxing mode                              : zlib
Codec ID                                 : S_VOBSUB
Codec ID/Info                            : Picture based subtitle format used on DVDs
Duration                                 : 1 h 35 min
Bit rate                                 : 7 928 b/s
Count of elements                        : 871
Stream size                              : 5.41 MiB (0%)
Language                                 : English
Default                                  : No
Forced                                   : No

Text #2
ID                                       : 5
Format                                   : UTF-8
Codec ID                                 : S_TEXT/UTF8
Codec ID/Info                            : UTF-8 Plain Text
Duration                                 : 1 h 35 min
Bit rate                                 : 31 b/s
Count of elements                        : 726
Stream size                              : 22.3 KiB (0%)
Language                                 : Czech
Default                                  : No
Forced                                   : No

Text #3
ID                                       : 6
Format                                   : UTF-8
Codec ID                                 : S_TEXT/UTF8
Codec ID/Info                            : UTF-8 Plain Text
Duration                                 : 1 h 34 min
Bit rate                                 : 45 b/s
Count of elements                        : 1000
Stream size                              : 31.8 KiB (0%)
Language                                 : French
Default                                  : No
Forced                                   : No

Text #4
ID                                       : 7
Format                                   : UTF-8
Codec ID                                 : S_TEXT/UTF8
Codec ID/Info                            : UTF-8 Plain Text
Duration                                 : 1 h 35 min
Bit rate                                 : 39 b/s
Count of elements                        : 726
Stream size                              : 27.4 KiB (0%)
Language                                 : Italian
Default                                  : No
Forced                                   : No

Text #5
ID                                       : 8
Format                                   : UTF-8
Codec ID                                 : S_TEXT/UTF8
Codec ID/Info                            : UTF-8 Plain Text
Duration                                 : 1 h 35 min
Bit rate                                 : 36 b/s
Count of elements                        : 713
Stream size                              : 25.4 KiB (0%)
Language                                 : Romanian
Default                                  : No
Forced                                   : No

Text #6
ID                                       : 9
Format                                   : UTF-8
Codec ID                                 : S_TEXT/UTF8
Codec ID/Info                            : UTF-8 Plain Text
Duration                                 : 1 h 35 min
Bit rate                                 : 45 b/s
Count of elements                        : 871
Stream size                              : 31.8 KiB (0%)
Language                                 : Spanish
Default                                  : No
Forced                                   : No

Menu
00:00:00.000                             : en:Logos/Credits
00:02:19.506                             : en:Board Meeting
00:07:46.706                             : en:Disappearing Act
00:12:57.206                             : en:"Just Give Me Some Money"
00:15:22.463                             : en:Staking Out the Enemy
00:21:25.534                             : en:Three Cats and a Tiger
00:25:46.003                             : en:"The Best Sword is Kept in it's Sheath"
00:31:03.653                             : en:What's In a Name
00:35:05.985                             : en:The Other Side of the Wall
00:39:20.066                             : en:No Rest for the Weary
00:41:26.567                             : en:Palanquin Procession
00:43:45.373                             : en:Behind Closed Doors
00:47:07.324                             : en:Good Guy or Bad Guy?
00:55:23.403                             : en:The Bad Drink Sake
00:57:40.916                             : en:Ambushes
00:59:48.251                             : en:All Tied Up
01:06:22.395                             : en:What the Water Brought
01:14:12.865                             : en:Saving the Chamberlain
01:20:14.351                             : en:Sanjuro Breaks the News
01:27:46.094                             : en:Feeding the Samurai
01:31:11.549                             : en:A Flood of Camelias

Скріншоти





Джерело:


Срібний реліз (на рейтинг впливає 50% завантаженого)
 Трекер:    Зареєстрований   

Завантажити / скачати фільм українською



відео для новачків



 Зареєстрований:   2020-05-26 01:04
 Розмір:   7.59 GB 
 Оцінка фільму:   9.9/10 (Голосів: 7)
   
SurFutur 
VIP


З нами з: 12.03.15
Востаннє: 21.09.20
Повідомлень: 482

2020-05-26 01:14  
Дякую! А українські субтитри не додасте?
Anonymous 







2020-05-26 02:03  
SurFutur написано:
А українські субтитри не додасте?

на Толоці нема, на блюрі не було, на інші ресурси майже не ходжу та й ліньки шукати/синхронити
тому - ні
якщо маєте наші саби, то залийте сюди https://www.opensubtitles.org/uk/search/sublanguageid-all/idmovie-969 а тут дамо посилання

SurFutur 
VIP


З нами з: 12.03.15
Востаннє: 21.09.20
Повідомлень: 482

2020-05-26 02:04  
ssTAss написано:
на Толоці нема

https://toloka.to/t41258

Anonymous 







2020-05-26 02:11  
SurFutur написано:
https://toloka.to/t41258

значить зле шукав) Wide grin там така назва кілометрова)
будуть саби там...

omm 
Відео Гуртом - фільмокрай
Відео Гуртом - фільмокрай


З нами з: 12.06.12
Востаннє: 22.09.20
Повідомлень: 2422

2020-05-26 09:23  
Можливо, комусь потрібна..

Готова доріжка до першої частини https://fex.net/uk/s/nm2nknp

21jumpstreet 
VIP


З нами з: 03.07.12
Востаннє: 22.09.20
Повідомлень: 1233

2020-05-26 14:21  
omm
Я зроблю реліз

Siegfried 
VIP


З нами з: 01.11.11
Востаннє: 20.09.20
Повідомлень: 325

2020-06-04 09:08  
На Толоці є японський "Особистий охоронець" перша частина ?

Пошук видає лише американський варіант з Костнером.

+380954897458 
VIP


З нами з: 02.06.17
Востаннє: 18.09.20
Повідомлень: 942

2020-06-04 12:35  
Siegfried
Ніякого "Особистого охоронця" японського в природі не існує. Є "Охоронець" / "Yojimbo". Тут є кілька релізів. Happy

Siegfried 
VIP


З нами з: 01.11.11
Востаннє: 20.09.20
Повідомлень: 325

2020-06-14 15:23  
+380954897458 написано:
Ніякого "Особистого охоронця" японського в природі не існує. Є "Охоронець" / "Yojimbo". Тут є кілька релізів.


Дякую за пролиття світла на ситуацію.

Ваш часовий пояс: GMT + 2 Години

Нова тема   Відповісти