Безпека в останню чергу! / Safety Last! (1923) AVC Eng | sub Ukr [Німе Кіно]

Нові коментарі

Нова тема   Відповісти
Автор Повідомлення
Anonymous 







2020-05-25 22:07  
Безпека в останню чергу! / Safety Last! (1923) AVC Eng | sub Ukr [Німе Кіно]

Безпека в останню чергу! / Safety Last! (1923) AVC Eng | sub Ukr [Німе Кіно]

Жанр: комедія, мелодрама, трилер
Країна: США



Кінокомпанія: Hal Roach Studios Inc.
Режисер: Fred C. Newmeyerd і Сем Тейлор
Актори: Гарольд Ллойд, Мілдред Девіс, Білл Стротер, Ной Янг, Весткотт Кларк та інші.

Сюжет:
Дія фільму відбувається в 1920-і роки. Головний герой — амбітний молодий чоловік, спраглий зробити кар'єру. Він їде до великого міста й влаштовується на роботу продавцем в універмазі. Але своїй коханій, яка чекає, доки він досягне успіху, щоб переїхати жити до нього, наш герой пише листи, в яких приховує факт відсутності просування кар'єрними сходами.


Тривалість: 01:13:53
Якість:
Відео:
кодек:
розмір кадру: 788х576
бітрейт: 2 мб/с

Аудіо # 1:
мова: відсутня, лише музичний супровід
переклад: оригінал
кодек: 2.0
бітрейт: 192 кб/с

Аудіо # 2:
мова: відсутня, лише музичний супровід
переклад: оригінал
кодек: 1.0
бітрейт: 192 кб/с

Субтитри:
мова: українська
тип: програмні (м'які)
формат: *.
переклад: власний аматорський, з російської
Info
General
Unique ID : 131114331188338905790768700826581182321 (0x62A3B39FD1A2B792373B64387F23A771)
Complete name : Safety Last (1923) AVC [UKR SUB].
Format :
Format version : Version 4
File size : 1.23 GiB
Duration : 1 h 13 min
Overall bit rate : 2 387 kb/s
Encoded date : UTC 2020-05-25 19:05:06
Writing application : v46.0.0 ('No Deeper Escape') 64-bit
Writing library : libebml v1.3.10 + v1.5.2
Cover : Yes
Attachments : Cover_.jpg

Video
ID : 1
Format : AVC
Format/Info : Advanced Video Codec
Format profile : [email protected]
Format settings : CABAC / 9 Ref Frames
Format settings, CABAC : Yes
Format settings, Reference : 9 frames
Codec ID : V_MPEG4/ISO/AVC
Duration : 1 h 13 min
Bit rate : 2 000 kb/s
Width : 788 pixels
Height : 576 pixels
Display aspect ratio : 4:3
Frame rate mode : Constant
Frame rate : 29.970 (30000/1001) FPS
Color space : YUV
Chroma subsampling : 4:2:0
Bit depth : 8 bits
Scan type : Progressive
Bits/(Pixel*Frame) : 0.147
Stream size : 1.03 GiB (84%)
Title : Video
Writing library : core 157 r2935 545de2f
Encoding settings : cabac=1 / ref=9 / deblock=1:-1:-1 / analyse=0x3:0x113 / me=umh / subme=11 / psy=1 / psy_rd=1.00:0.15 / mixed_ref=1 / me_range=48 / chroma_me=1 / trellis=2 / 8x8dct=1 / cqm=0 / deadzone=21,11 / fast_pskip=0 / chroma_qp_offset=-5 / threads=18 / lookahead_threads=3 / sliced_threads=0 / nr=0 / decimate=1 / interlaced=0 / bluray_compat=0 / constrained_intra=0 / bframes=8 / b_pyramid=2 / b_adapt=2 / b_bias=0 / direct=1 / weightb=1 / open_gop=0 / weightp=2 / keyint=300 / keyint_min=29 / scenecut=40 / intra_refresh=0 / rc_lookahead=60 / rc=2pass / mbtree=1 / bitrate=2000 / ratetol=1.0 / qcomp=0.60 / qpmin=10 / qpmax=69 / qpstep=4 / cplxblur=20.0 / qblur=0.5 / vbv_maxrate=50000 / vbv_bufsize=62500 / nal_hrd=none / filler=0 / ip_ratio=1.40 / aq=1:1.00
Default : Yes
Forced : No

Audio #1
ID : 2
Format : AC-3
Format/Info : Audio Coding 3
Commercial name : Dolby Digital
Codec ID : A_AC3
Duration : 1 h 13 min
Bit rate mode : Constant
Bit rate : 192 kb/s
Channel(s) : 2 channels
Channel layout : L R
Sampling rate : 48.0 kHz
Frame rate : 31.250 FPS (1536 SPF)
Compression mode : Lossy
Stream size : 101 MiB (8%)
Title : Music 1
Service kind : Complete Main
Default : Yes
Forced : No

Audio #2
ID : 3
Format : AC-3
Format/Info : Audio Coding 3
Commercial name : Dolby Digital
Codec ID : A_AC3
Duration : 1 h 13 min
Bit rate mode : Constant
Bit rate : 192 kb/s
Channel(s) : 1 channel
Channel layout : C
Sampling rate : 48.0 kHz
Frame rate : 31.250 FPS (1536 SPF)
Compression mode : Lossy
Stream size : 101 MiB (8%)
Title : Music 2
Service kind : Complete Main
Default : No
Forced : No

Text
ID : 4
Format :
Codec ID : S_TEXT/
Codec ID/Info : Advanced Sub Station Alpha
Duration : 1 h 12 min
Bit rate : 34 b/s
Count of elements : 143
Compression mode : Lossless
Stream size : 18.4 KiB (0%)
Title : Українські
Language : Ukrainian
Default : Yes
Forced : No
Оригінальні постери









Скріншоти








Цікаві факти
- Гарольд Ллойд, разом з Чарлі Чапліном та Бастером Кітоном, - один з найбільш популярних і впливових кіноакторів епохи німого кіно. Ллойд знявся приблизно в 200 гумористичних фільмах, як німих так і звукових, між 1913 і 1947 рр.

- Зображення Ллойда, що висить на стрілках годинника високо над вулицею у фільмі «Безпека в останню чергу!», є одним з найбільш знаменитих зображень в історії світового кіно.

- Фрагмент, в якому Гарольд Ллойд висить на стрілках годинника, використовувався на початку фільму «Здоровеньки, я ваша тітка!» (1975), а також у фільмі «Хранитель часу» (2011).

- Також відсиланням до цього фрагменту є сцена з художнього фільму «Назад в майбутнє» (1985), в якій Еметт Браун висить на стрілці годинника в Хілл-Веллі 1955 року народження, перед грозою.

- Один з найбільш знаменитих трюків в акторській кар'єрі Джекі Чана - падіння зі стрілок годинникової вежі у фільмі «Проєкт «А»» (1983). Падіння було справжнім, і під час зйомки одного з дублів актор отримав серйозні травми.

- Ллойд робив більшість небезпечних трюків сам, незважаючи на те, що поранив себе під час зйомок «Поява привидів» (1920) - аварія з бомбою призвела до втрати великого і вказівного пальців правої руки (це було приховано в фільмах спеціальної протез-рукавичкою).

- Офіційний сайт присвячений Гарольду Ллойду (анг.) - https://haroldlloyd.com/
Джерело: &
Особиста оцінка: 9 - давно не бачив настільки якісне кіно

Дуже дякую Neytreenor за находження blu-ray!


Срібний реліз (на рейтинг впливає 50% завантаженого)
 Трекер:    Зареєстрований   

Завантажити / скачати фільм українською



відео для новачків



 Зареєстрований:   2020-05-25 22:07
 Розмір:   1.23 GB 
 Оцінка фільму:   6.7/10 (Голосів: 6)
   
Ваш часовий пояс: GMT + 2 Години

Нова тема   Відповісти