Солодка парочка / The Lovebirds (2020) AVC Eng | sub Ukr

Нові коментарі

Нова тема   Відповісти
Автор Повідомлення
killer2015 
Поважний учасник


З нами з: 30.01.15
Востаннє: 27.11.20
Повідомлень: 193

2020-05-25 16:27  
Солодка парочка / The Lovebirds (2020) Eng | sub Ukr

Солодка парочка / The Lovebirds (2020) AVC Eng | sub Ukr


Жанр: комедія
Країна: США



Кінокомпанія: Paramount Pictures, 3 Arts Entertainment
Режисер: Майкл Шоуолтер
Актори: Кумейл Нанджіані, Пол Спаркс, Анна Кемп, Ісса Рей, Кайл Борнхаймер, Джо Хрест, Кеннет Кинт Брайан, Махді Коччи, Андріна Уорд-Хеммонд, Келлі Мурта

Сюжет:
Джібран і Лейлані зараз переживають не найкращі часи в їх стосунках. Ця подружня пара любила, і, швидше за все, до сих пір люблять один одного, але все-таки стоять на межі розлучення. Одна подія змусила трохи поміняти їх плани – під час поїздки до Нового Орлеану вони були вплутані в погоню за велосипедистом, якого згодом убили. Хлопець, який позичив їх машину, представився копом, але щось підказує, що це не був служитель закону. Вгадайте хто стали головними підозрюваними в убивстві? Джібран і Лейлані. Тепер їм доведеться дуже сильно постаратися, щоб довести свою невинність і знайти справжнього вбивцю.


Тривалість: 01:27:13
Якість:
Відео:
кодек: AVC
розмір кадру: 704x406
бітрейт: 1 700 кб/с

Аудіо:
мова: англійська
переклад: оригінал
кодек: 5.1
бітрейт: 384 кб/с

Субтитри:
мова: українська - Офіційні
тип: програмні (м'які)
формат: *.srt
МедіаІнфо
General
Unique ID : 223272171775506679834705168408187487798 (0xA7F8A7F8998C6E9B3D28DB227CFFC636)
Complete name : G:\Фільми\The.Lovebirds.2020...-EVO[TGx]\The.Lovebirds.2020...-EVO.avi
Format :
Format version : Version 2
File size : 1.27 GiB
Duration : 1 h 27 min
Overall bit rate : 2 078 kb/s
Movie name : EVO
Encoded date : UTC 2020-05-22T07:38:30Z
Writing application : HandBrake 0.10.5 2016021100
Writing library : Lavf55.12.0
FileExtension_Invalid : mk3d mka mks

Video
ID : 1
Format : AVC
Format/Info : Advanced Video Codec
Format profile : [email protected]
Format settings : CABAC / 4 Ref Frames
Format settings, CABAC : Yes
Format settings, Reference frames : 4 frames
Codec ID : V_MPEG4/ISO/AVC
Duration : 1 h 27 min
Bit rate : 1 700 kb/s
Width : 720 pixels
Height : 406 pixels
Display aspect ratio : 16:9
Frame rate mode : Constant
Frame rate : 23.976 (24000/1001) FPS
Color space : YUV
Chroma subsampling : 4:2:0
Bit depth : 8 bits
Scan type : Progressive
Bits/(Pixel*Frame) : 0.243
Stream size : 1.01 GiB (80%)
Writing library : core 142 r2479 dd79a61
Encoding settings : cabac=1 / ref=1 / deblock=1:0:0 / analyse=0x3:0x3 / me=dia / subme=1 / psy=1 / psy_rd=1.00:0.00 / mixed_ref=0 / me_range=16 / chroma_me=1 / trellis=0 / 8x8dct=1 / cqm=0 / deadzone=21,11 / fast_pskip=1 / chroma_qp_offset=0 / threads=12 / lookahead_threads=2 / sliced_threads=0 / nr=0 / decimate=1 / interlaced=0 / bluray_compat=0 / constrained_intra=0 / bframes=3 / b_pyramid=2 / b_adapt=1 / b_bias=0 / direct=1 / weightb=1 / open_gop=0 / weightp=1 / keyint=240 / keyint_min=24 / scenecut=40 / intra_refresh=0 / rc_lookahead=0 / rc=abr / mbtree=0 / bitrate=1700 / ratetol=1.0 / qcomp=0.60 / qpmin=0 / qpmax=69 / qpstep=4 / vbv_maxrate=62500 / vbv_bufsize=78125 / nal_hrd=none / filler=0 / ip_ratio=1.40 / pb_ratio=1.30 / aq=1:1.00
Default : Yes
Forced : No
Color range : Limited
Color primaries : BT.709
Transfer characteristics : BT.709
Matrix coefficients : BT.709

Audio
ID : 2
Format : AC-3
Format/Info : Audio Coding 3
Commercial name : Dolby Digital
Codec ID : A_AC3
Duration : 1 h 27 min
Bit rate mode : Constant
Bit rate : 384 kb/s
Channel(s) : 6 channels
Channel layout : L R C LFE Ls Rs
Sampling rate : 48.0 kHz
Frame rate : 31.250 FPS (1536 SPF)
Compression mode : Lossy
Delay relative to video : -5 ms
Stream size : 240 MiB (18%)
Title : Surround
Language : English
Service kind : Complete Main
Default : Yes
Forced : No
Скріншоти




Джерело:


 Трекер:    Зареєстрований   

Завантажити / скачати фільм українською



відео для новачків



 Зареєстрований:   2020-05-25 16:27
 Розмір:   1.27 GB 
 Оцінка фільму:   6.6/10 (Голосів: 11)
   
Інші релізи
   Голуб'ята / The Lovebirds (2020) 1080p Ukr/Eng | Sub Ukr ArtymKo  21 / 0   5.12 GB   2020-10-17 16:32 
Ваш часовий пояс: GMT + 2 Години

Нова тема   Відповісти