На межі божевілля / Spinning Man (2018) AVC Ukr/Eng | sub Eng

Нові коментарі

Нова тема   Відповісти
Автор Повідомлення
Arsenfpu 
Відео Гуртом - фільмокрай
Відео Гуртом - фільмокрай


З нами з: 30.04.09
Востаннє: 06.07.20
Повідомлень: 7042

2020-05-25 15:06  
На межі божевілля / Spinning Man (2018) AVC Ukr/Eng | sub Eng

На межі божевілля / Spinning Man (2018) AVC Ukr/Eng | sub Eng


Жанр: драма, трилер, детектив
Країна: Ірландія, Швеція, США



Кінокомпанія: Film Bridge International, VX119 Media Capital
Режисер: Симон Кайзер
Актори: Одея Раш, Пірс Броснан, Гай Пірс, Мінні Драйвер, Олександра Шіпп, Кларк Грегг, Джеймі Кеннеді, Стерлінг Бомон, Фрея Тінглі, Карло Рота

Сюжет:
Респектабельне життя професора філософії Евана Берча починає валитися в міру того, як з'являються подробиці про його неналежну поведінку з студентками. В довершення до всього герой стає головним підозрюваним у справі про вбивство однієї зі слухачок його курсу.


Тривалість: 01:40:36
Якість:
Відео:
кодек:
розмір кадру: 1024x428
бітрейт: 2070 кб/с

Аудіо # 1:
мова: українська
переклад: багатоголосий закадровий
кодек: 2.0
бітрейт: 192 кб/с

Аудіо # 2:
мова: англійська
переклад: оригінал
кодек: 2.0
бітрейт: 192 кб/с

Субтитри:
мова: англійська
тип: програмні (м'які)
формат: *.srt
Скріншоти














Про файл
General
Unique ID : 287347311010230366192515076867999556026 (0xD82D143E058BB53617E14441FEE261BA)
Complete name : C:\Spinning Man (2018) [Ukr,Eng] AVC [Hurtom].
Format :
Format version : Version 4 / Version 2
File size : 1.73 GiB
Duration : 1 h 40 min
Overall bit rate : 2 459 kb/s
Movie name : На межі божевілля / Spinning Man (2018)
Encoded date : UTC 2020-06-01 20:44:23
Writing application : v21.0.0 ('Tardigrades Will Inherit The Earth') 32-bit
Writing library : libebml v1.3.5 + v1.4.8
Cover : Yes
Attachments : cover.jpg

Video
ID : 1
Format : AVC
Format/Info : Advanced Video Codec
Format profile : [email protected]
Format settings, CABAC : Yes
Format settings, ReFrames : 10 frames
Codec ID : V_MPEG4/ISO/AVC
Duration : 1 h 40 min
Bit rate : 2 070 kb/s
Width : 1 024 pixels
Height : 428 pixels
Display aspect ratio : 2.40:1
Frame rate mode : Constant
Frame rate : 23.976 (24000/1001) FPS
Color space : YUV
Chroma subsampling : 4:2:0
Bit depth : 8 bits
Scan type : Progressive
Bits/(Pixel*Frame) : 0.197
Stream size : 1.45 GiB (84%)
Writing library : core 155 r2901M 7d0ff22
Encoding settings : cabac=1 / ref=10 / deblock=1:-3:-3 / analyse=0x3:0x133 / me=umh / subme=11 / psy=1 / psy_rd=1.00:0.00 / mixed_ref=1 / me_range=32 / chroma_me=1 / trellis=2 / 8x8dct=1 / cqm=0 / deadzone=21,11 / fast_pskip=0 / chroma_qp_offset=-2 / threads=5 / lookahead_threads=1 / sliced_threads=0 / nr=0 / decimate=0 / interlaced=0 / bluray_compat=0 / constrained_intra=0 / bframes=10 / b_pyramid=2 / b_adapt=2 / b_bias=0 / direct=3 / weightb=1 / open_gop=0 / weightp=2 / keyint=240 / keyint_min=24 / scenecut=40 / intra_refresh=0 / rc_lookahead=120 / rc=2pass / mbtree=0 / bitrate=2070 / ratetol=1.0 / qcomp=0.70 / qpmin=0 / qpmax=69 / qpstep=4 / cplxblur=20.0 / qblur=0.5 / vbv_maxrate=62500 / vbv_bufsize=78125 / nal_hrd=none / filler=0 / ip_ratio=1.40 / pb_ratio=1.30 / aq=1:1.00
Language : English
Default : Yes
Forced : No

Audio #1
ID : 2
Format : AC-3
Format/Info : Audio Coding 3
Mode extension : CM (complete main)
Format settings, Endianness : Big
Codec ID : A_AC3
Duration : 1 h 40 min
Bit rate mode : Constant
Bit rate : 192 kb/s
Channel(s) : 2 channels
Channel positions : Front: L R
Sampling rate : 48.0 kHz
Frame rate : 31.250 FPS (1536 spf)
Compression mode : Lossy
Stream size : 138 MiB (8%)
Title : НТН
Language : Ukrainian
Default : Yes
Forced : Yes

Audio #2
ID : 3
Format : AC-3
Format/Info : Audio Coding 3
Mode extension : CM (complete main)
Format settings, Endianness : Big
Codec ID : A_AC3
Duration : 1 h 40 min
Bit rate mode : Constant
Bit rate : 192 kb/s
Channel(s) : 2 channels
Channel positions : Front: L R
Sampling rate : 48.0 kHz
Frame rate : 31.250 FPS (1536 spf)
Compression mode : Lossy
Stream size : 138 MiB (8%)
Language : English
Default : No
Forced : No

Text
ID : 4
Format : UTF-8
Codec ID : S_TEXT/UTF8
Codec ID/Info : UTF-8 Plain Text
Duration : 1 h 36 min
Bit rate : 67 b/s
Count of elements : 1579
Stream size : 48.1 KiB (0%)
Language : English
Default : No
Forced : No

Menu
00:00:00.000 : :Chapter 01
00:06:58.251 : :Chapter 02
00:11:58.426 : :Chapter 03
00:19:37.718 : :Chapter 04
00:25:02.292 : :Chapter 05
00:30:23.738 : :Chapter 06
00:37:14.523 : :Chapter 07
00:43:05.124 : :Chapter 08
00:49:24.169 : :Chapter 09
00:56:05.653 : :Chapter 10
01:03:32.892 : :Chapter 11
01:09:20.823 : :Chapter 12
01:15:05.375 : :Chapter 13
01:21:58.246 : :Chapter 14
01:30:54.490 : :Chapter 15
01:34:24.533 : :Chapter 16
Джерело:
За запис з ТБ дякую пану Bohdan237
За постер дякую пану mrgalser
Особиста оцінка: не дивився


 Трекер:    Зареєстрований   

Завантажити / скачати фільм українською



відео для новачків



 Зареєстрований:   2020-06-01 23:54
 Розмір:   1.73 GB 
 Оцінка фільму:   7.3/10 (Голосів: 9)
   
Інші релізи
=KateRyna= 
Новенький


З нами з: 26.08.14
Востаннє: 06.07.20
Повідомлень: 24

2020-05-28 00:47  
Помилка у постері "ПравилИно".
bot 
робот


З нами з: 30.09.07
Востаннє: 26.05.05
Повідомлень: 24984

2020-06-01 23:54  
Тему перенесено з Анонси релізів до форуму Фільми


Arsenfpu

mrgalser 
Частий відвідувач


З нами з: 19.12.18
Востаннє: 06.07.20
Повідомлень: 27

2020-06-02 15:02  
=KateRyna=

Дякую, виправив

igor911 
Модератор відео


З нами з: 18.01.08
Востаннє: 06.07.20
Повідомлень: 14857

2020-06-02 15:31  
Цитата:
Жанр: ... містика
Сюжет: ...герой стає головним підозрюваним у справі про вбивство

це детектив

Ваш часовий пояс: GMT + 2 Години

Нова тема   Відповісти