До побачення там, нагорі (See You Up There) / Au revoir là-haut (2017) 720p Ukr/Fre | Sub Fre/Eng

Нові коментарі

Нова тема   Відповісти
Автор Повідомлення
Anonymous 







2020-05-25 13:47  
До побачення там, нагорі (See You Up There) / Au revoir là-haut (2017) 720p Ukr/Fre | Sub Fre/Eng

До побачення там, нагорі (See You Up There) / Au revoir là-haut (2017) 720p Ukr/Fre | Sub Fre/Eng


Жанр: комедія, кримінальний, драма
Країна: Франція, Канада



Кінокомпанія: Stadenn Prod, Manchester Films, Gaumont
Режисер: Альбер Дюпонтель
Актори: Альбер Дюпонтель, Науель Перес Біскаярт, Лоран Лафітт, Нільс Ареструп, Мелані Тьєррі та інші

Сюжет:
Останні дні Першої світової війни. Капітан Прадель, негідник, для якого людське життя ніщо, посилає на вірну загибель двох рядових – блискучого молодого художника, сина мільйонера Едуара і колишнього листоношу Альбера. Едуар рятує життя Альбера, але сам важко поранений. Його обличчя жахливо понівечене, і він не хоче повертатися у замок батька таким. Оголосивши себе загиблим і приховавши назавжди обличчя під маскою, Едуар починає малювати приголомшливі картини про війну. Альбер стає імпресаріо «людини без обличчя».


Тривалість: 01:56:59
Якість: 720p
Відео:
кодек:
розмір кадру: 1280x534
бітрейт: 5000 кб/с

Аудіо # 1:
мова: українська
переклад: двоголосий закадровий
кодек: 2.0
бітрейт: 192 кб/с
примітка: імовірно озвучення з кінопрокату

Аудіо # 2:
мова: французька
переклад: оригінал
кодек: 5.1
бітрейт: 1536 кб/с

Субтитри:
мова: французька
тип: програмні (м'які)
формат: *.srt

Субтитри:
мова: англійська
тип: програмні (м'які)
формат: *.srt

Збережено оригінальні розділи, як на Blu-ray
Info
Код:
General
Complete name                            : Au revoir là-haut (2017) 720p [Ukr, Fre] [Video_Hurtom].
Format                                   :
Format version                           : Version 4
File size                                : 5.49 GiB
Duration                                 : 1 h 56 min
Overall bit rate                         : 6 717 kb/s
Movie name                               : До побачення там, нагорі (See You Up There) / Au revoir là-haut (2017)
Encoded date                             : UTC 2020-05-25 10:39:19
Writing application                      : v30.1.0 ('Forever And More') 64-bit
Writing library                          : libebml v1.3.6 + v1.4.9
Cover                                    : Yes
Attachments                              : cover.jpg

Video
ID                                       : 1
Format                                   : AVC
Format/Info                              : Advanced Video Codec
Format profile                           : [email protected]
Format settings                          : CABAC / 12 Ref Frames
Format settings, CABAC                   : Yes
Format settings, RefFrames               : 12 frames
Codec ID                                 : V_MPEG4/ISO/AVC
Duration                                 : 1 h 56 min
Bit rate                                 : 5 000 kb/s
Width                                    : 1 280 pixels
Height                                   : 534 pixels
Display aspect ratio                     : 2.40:1
Frame rate mode                          : Constant
Frame rate                               : 24.000 FPS
Color space                              : YUV
Chroma subsampling                       : 4:2:0
Bit depth                                : 8 bits
Scan type                                : Progressive
Bits/(Pixel*Frame)                       : 0.305
Stream size                              : 4.07 GiB (74%)
Writing library                          : core 148 r2705 3f5ed56
Encoding settings                        : cabac=1 / ref=12 / deblock=1:-2:-2 / analyse=0x3:0x133 / me=umh / subme=10 / psy=1 / psy_rd=1.05:0.05 / mixed_ref=1 / me_range=32 / chroma_me=1 / trellis=2 / 8x8dct=1 / cqm=0 / deadzone=21,11 / fast_pskip=0 / chroma_qp_offset=-3 / threads=12 / lookahead_threads=2 / sliced_threads=0 / nr=0 / decimate=0 / interlaced=0 / bluray_compat=0 / constrained_intra=0 / bframes=8 / b_pyramid=2 / b_adapt=2 / b_bias=0 / direct=3 / weightb=1 / open_gop=0 / weightp=2 / keyint=240 / keyint_min=24 / scenecut=40 / intra_refresh=0 / rc_lookahead=50 / rc=2pass / mbtree=0 / bitrate=5000 / ratetol=1.0 / qcomp=0.60 / qpmin=0 / qpmax=51 / qpstep=4 / cplxblur=20.0 / qblur=0.5 / vbv_maxrate=50000 / vbv_bufsize=62500 / nal_hrd=none / filler=0 / ip_ratio=1.40 / pb_ratio=1.30 / aq=3:0.80
Language                                 : English
Default                                  : Yes
Forced                                   : No

Audio #1
ID                                       : 2
Format                                   : AC-3
Format/Info                              : Audio Coding 3
Commercial name                          : Dolby Digital
Codec ID                                 : A_AC3
Duration                                 : 1 h 56 min
Bit rate mode                            : Constant
Bit rate                                 : 192 kb/s
Channel(s)                               : 2 channels
Channel layout                           : L R
Sampling rate                            : 48.0 kHz
Frame rate                               : 31.250 FPS (1536 SPF)
Bit depth                                : 16 bits
Compression mode                         : Lossy
Stream size                              : 161 MiB (3%)
Title                                    : 2.0 | 192
Language                                 : Ukrainian
Service kind                             : Complete Main
Default                                  : Yes
Forced                                   : No

Audio #2
ID                                       : 3
Format                                   :
Format/Info                              : Digital Theater Systems
Codec ID                                 : A_DTS
Duration                                 : 1 h 56 min
Bit rate mode                            : Constant
Bit rate                                 : 1 536 kb/s
Channel(s)                               : 6 channels
Channel layout                           : C L R Ls Rs LFE
Sampling rate                            : 48.0 kHz
Frame rate                               : 93.750 FPS (512 SPF)
Bit depth                                : 16 bits
Compression mode                         : Lossy
Stream size                              : 1.26 GiB (23%)
Title                                    : 5.1 | 1536
Language                                 : French
Default                                  : No
Forced                                   : No

Text #1
ID                                       : 4
Format                                   : UTF-8
Codec ID                                 : S_TEXT/UTF8
Codec ID/Info                            : UTF-8 Plain Text
Duration                                 : 1 h 56 min
Bit rate                                 : 48 b/s
Count of elements                        : 1427
Stream size                              : 41.7 KiB (0%)
Language                                 : French
Default                                  : Yes
Forced                                   : No

Text #2
ID                                       : 5
Format                                   : UTF-8
Codec ID                                 : S_TEXT/UTF8
Codec ID/Info                            : UTF-8 Plain Text
Duration                                 : 1 h 56 min
Bit rate                                 : 35 b/s
Count of elements                        : 1184
Stream size                              : 30.0 KiB (0%)
Language                                 : English
Default                                  : No
Forced                                   : No

Menu
00:00:00.000                             : en:00:00:00.000
00:09:51.917                             : en:00:09:51.917
00:19:04.875                             : en:00:19:04.875
00:28:15.292                             : en:00:28:15.292
00:36:53.125                             : en:00:36:53.125
00:47:04.500                             : en:00:47:04.500
00:57:27.000                             : en:00:57:27.000
01:06:40.792                             : en:01:06:40.792
01:14:52.250                             : en:01:14:52.250
01:23:42.292                             : en:01:23:42.292
01:31:53.125                             : en:01:31:53.125
01:42:48.167                             : en:01:42:48.167
Світлини:






Джерело:
Особиста оцінка: 0 - не дивився
Подяка за доріжку п.krigg070


 Трекер:    Зареєстрований   

Завантажити / скачати фільм українською



відео для новачків



 Зареєстрований:   2020-05-25 13:47
 Розмір:   5.49 GB 
 Оцінка фільму:   8.9/10 (Голосів: 9)
   
Ваш часовий пояс: GMT + 2 Години

Нова тема   Відповісти