Новобранець (Сезон 1) / The Rookie (Season 1) (2018-2019) 1080p 2xUkr/Eng | sub Eng

Нові коментарі

Нова тема   Відповісти
Автор Повідомлення
Anonymous 







2020-05-25 09:08  
Новобранець (Сезон 1) / The Rookie (Season 1) (2018-2019) 1080p 2xUkr/Eng | sub Eng

Новобранець (Сезон 1) / The Rookie (Season 1) (2018-2019) 1080p 2xUkr/Eng | sub Eng


Жанр: детектив, драма, комедія
Країна: США



Кінокомпанія: eOne Television, Perfectmon Pictures, ABC Studios
Режисер: Алексі Гоулі (Alexi Hawley)
Актори: Натан Філліон (Nathan Fillion), Ерік Вінтер (Eric Winter), Річард Ті Джоунс (Richard T. Jones), Аліса Діаз (Alyssa Diaz), Меліса Оніл (Melissa O'Neil), Мерседес Мейсон (Mercedes Mason) та інші

Сюжет:
Починати з чистого аркуша завжди нелегко, особливо для мешканця маленького містечка Джона Нолана. Після інциденту, який перевернув його життя, він вирішив здійснити давню мрію і приєднатися до поліції Лос-Анджелеса. Старого новачка зустрічають із зрозумілим скептицизмом, проте життєвий досвід, наполегливість та почуття гумора дають Джону перевагу.


Тривалість: 1 серія: ~43 хв. (цілком серій: 20)
Перелік серій
01) Pilot
02) Crash Course
03) The Good, the Bad and the Ugly
04) The Switch
05) The Roundup
06) The Hawke
07) The Ride Along
08) Time of Death
09) Standoff
10) Flesh and Blood
11) Redwood
12) Heartbreak
13) Caught Stealing
14) Plain Clothes Day
15) Manhunt
16) Greenlight
17) The Shake Up
18) Homefront
19) The Checklist
20) Free Fall
Якість: [Amazon]
Відео:
кодек:
розмір кадру: 1920 х 1080
бітрейт: 6-9 мб/с

Аудіо # 1:
мова: українська
переклад: професійний дубльований | НЛО TV
кодек: 2.0
бітрейт: 192 кб/с

Аудіо # 2:
мова: українська
переклад: багатоголосий закадровий | DniproFilm
кодек: 5.1/2.0*
бітрейт: 384/192* кб/с
примітка: *починаючи з 16-ї серії

Аудіо # 3:
мова: англійська
переклад: оригінал
кодек: EAC3 5.1
бітрейт: 640 кб/с

Субтитри:
мова: англійська
тип: програмні (м'які)
формат: *.srt
Info
General
Unique ID : 254780338230402077896385126124629763136 (0xBFACE883FBB390DBDE1D4EF91267A440)
Complete name : F:\Support\series\The Rookie (Season 1) [, 1080p, Ukr, Eng]\The Rookie. s01e01. Pilot.
Format :
Format version : Version 4
File size : 2.48 GiB
Duration : 43 min 1 s
Overall bit rate : 8 242 kb/s
Encoded date : UTC 2020-06-02 21:18:50
Writing application : v47.0.0 ('Black Flag') 64-bit
Writing library : libebml v1.3.10 + v1.5.2

Video
ID : 1
Format : AVC
Format/Info : Advanced Video Codec
Format profile : [email protected]
Format settings : CABAC / 4 Ref Frames
Format settings, CABAC : Yes
Format settings, Reference : 4 frames
Codec ID : V_MPEG4/ISO/AVC
Duration : 43 min 1 s
Bit rate : 7 024 kb/s
Width : 1 920 pixels
Height : 1 080 pixels
Display aspect ratio : 16:9
Frame rate mode : Constant
Frame rate : 23.976 (24000/1001) FPS
Color space : YUV
Chroma subsampling : 4:2:0
Bit depth : 8 bits
Scan type : Progressive
Bits/(Pixel*Frame) : 0.141
Stream size : 2.11 GiB (85%)
Language : English
Default : Yes
Forced : No
Color range : Limited
Color primaries : BT.709
Transfer characteristics : BT.709
Matrix coefficients : BT.709

Audio #1
ID : 2
Format : AC-3
Format/Info : Audio Coding 3
Commercial name : Dolby Digital
Codec ID : A_AC3
Duration : 43 min 1 s
Bit rate mode : Constant
Bit rate : 192 kb/s
Channel(s) : 2 channels
Channel layout : L R
Sampling rate : 48.0 kHz
Frame rate : 31.250 FPS (1536 SPF)
Compression mode : Lossy
Stream size : 59.1 MiB (2%)
Title : НЛО TV
Language : Ukrainian
Service kind : Complete Main
Default : Yes
Forced : No

Audio #2
ID : 3
Format : AC-3
Format/Info : Audio Coding 3
Commercial name : Dolby Digital
Codec ID : A_AC3
Duration : 43 min 1 s
Bit rate mode : Constant
Bit rate : 384 kb/s
Channel(s) : 6 channels
Channel layout : L R C LFE Ls Rs
Sampling rate : 48.0 kHz
Frame rate : 31.250 FPS (1536 SPF)
Compression mode : Lossy
Stream size : 118 MiB (5%)
Title : DniproFilm
Language : Ukrainian
Service kind : Complete Main
Default : No
Forced : No

Audio #3
ID : 4
Format : E-AC-3
Format/Info : Enhanced AC-3
Commercial name : Dolby Digital Plus
Codec ID : A_EAC3
Duration : 43 min 1 s
Bit rate mode : Constant
Bit rate : 640 kb/s
Channel(s) : 6 channels
Channel layout : L R C LFE Ls Rs
Sampling rate : 48.0 kHz
Frame rate : 31.250 FPS (1536 SPF)
Compression mode : Lossy
Stream size : 197 MiB (8%)
Language : English
Service kind : Complete Main
Default : No
Forced : No

Text
ID : 5
Format : UTF-8
Codec ID : S_TEXT/UTF8
Codec ID/Info : UTF-8 Plain Text
Duration : 42 min 50 s
Bit rate : 92 b/s
Count of elements : 1026
Stream size : 29.0 KiB (0%)
Language : English
Default : No
Forced : No
Скріншоти

Подяки: -_-B_Е_N_D_E_R-_- за синхронізацію доріжки #1, ssTAss за допомогу з доріжкою #2

Джерело:
Особиста оцінка: 0 - не дивився





Авторський реліз (завантажувати можна без реєстрації)
 Трекер:    Зареєстрований   

Завантажити / скачати серіал українською



відео для новачків



 Зареєстрований:   2020-06-04 22:25
 Розмір:   52.02 GB 
 Оцінка серіалу:   9.2/10 (Голосів: 13)
   
Anonymous 







2020-06-04 22:26  
Торент оновлено. Додано озвучення від DniproFilm.
Ваш часовий пояс: GMT + 2 Години

Нова тема   Відповісти