Мучениці / Martyrs (2008) 1080p Fre | Sub Ukr/Eng

Нові коментарі

Нова тема   Відповісти
Автор Повідомлення
Anonymous 







2020-05-25 02:52  
Мучениці / Martyrs (2008) 1080p Fre | Sub Ukr/Eng


Альтернативні постери:







Жанр: драма, жахи
Країна: Канада, Франція



Кінокомпанія: Canal+, Eskwad, Wild Bunch
Режисер та сценарист: Паскаль Ложье / Pascal Laugier
Композитори: Алекс Кортес / Alex Cortés, Відді Кортес / Willie Cortés
Актори: Моржана Алауі / Morjana Alaoui, Мілен Жампаной / Mylène Jampanoï, Кетрін Беджін / Catherine Bégin, Робер Тупан / Robert Toupin, Патріція Туласне / Patricia Tulasne, Джульєт Госселін / Juliette Gosselin, Ксавьє Долан / Xavier Dolan, Ізабель Шассе / Isabelle Chasse, Ані Паскаль / Anie Pascale, Жан-Марі Монселе / Jean-Marie Moncelet, Джессі Фам / Jessie Pham, Еріка Скотт / Erika Scott, Тоні Робіноу / Tony Robinow.
Бюджет: 6 500 000 $

Сюжет:
Франція, початок 70-х. Люсі, маленька дівчинка, яка майже рік вважалася зниклою без звістки, виявлена на по просічній дорозі. Дитина у стані глибокого шоку й не може розповісти про те, що трапилося. Поліція швидко знаходить місце її ув'язнення - занедбану бойню. Але все говорить про те, що дівчинка ніколи не залишала своєї в'язниці. На брудному, змарнілому, збезводненому тілі дівчинки немає ніяких слідів сексуального насильства: це не був злочин, скоєний педофілом, але щось набагато більш дивне. Що трапилося в цьому місці? І як Люсі зуміла втекти?

Тривалість: 01:39:20
Якість: 1080p
Відео:
Кодек: H264
Розмір кадру: 1916 x 1036
Бітрейт: 14.0 Мбіт/с

Аудіо #1:
Мова: французська
Переклад: Оригінал
Кодек: 5.1
Бітрейт: 1509 Кбіт/с

Субтитри #1:
Мова: українська | Повні | (завантаження на OpenSubtitles)
Тип: програмні (м'які)
Формат: *.srt
Переклад з анг. мови: ninenine

Субтитри #2:
Мова: англійська | Повні | (завантаження на OpenSubtitles)
Тип: програмні (м'які)
Формат: *.srt

Info


General
Unique ID : 26822338255413976017528294982900221731 (0x142DCB6094B9D7218A6276D81D078723)
Format :
Format version : Version 4
File size : 10.8 GiB
Duration : 1 h 39 min
Overall bit rate : 15.5 Mb/s
Movie name : Martyrs (2008) 1080p [Fre][SubFreUkr] [Hurtom]
Encoded date : UTC 2020-05-24 23:32:08
Writing application : v46.0.0 ('No Deeper Escape') 64-bit
Writing library : libebml v1.3.10 + v1.5.2
Attachments : poster_fre1.jpg / poster_fre2.jpg / poster_fre3.jpg / poster_fre4.jpg

Video
ID : 1
Format : AVC
Format/Info : Advanced Video Codec
Format profile : [email protected]
Format settings : CABAC / 4 Ref Frames
Format settings, CABAC : Yes
Format settings, Reference fra : 4 frames
Codec ID : V_MPEG4/ISO/AVC
Duration : 1 h 39 min
Bit rate : 14.0 Mb/s
Width : 1 916 pixels
Height : 1 036 pixels
Display aspect ratio : 1.85:1
Frame rate mode : Constant
Frame rate : 23.976 (24000/1001) FPS
Color space : YUV
Chroma subsampling : 4:2:0
Bit depth : 8 bits
Scan type : Progressive
Bits/(Pixel*Frame) : 0.294
Stream size : 9.71 GiB (90%)
Title : Martyrs (2008) 1080p
Writing library : core 157 r2935 545de2f
Encoding settings : cabac=1 / ref=4 / deblock=1:-3:-3 / analyse=0x3:0x133 / me=umh / subme=10 / psy=1 / psy_rd=1.00:0.00 / mixed_ref=1 / me_range=24 / chroma_me=1 / trellis=2 / 8x8dct=1 / cqm=0 / deadzone=21,11 / fast_pskip=0 / chroma_qp_offset=-2 / threads=18 / lookahead_threads=3 / sliced_threads=0 / nr=0 / decimate=1 / interlaced=0 / bluray_compat=0 / constrained_intra=0 / bframes=8 / b_pyramid=2 / b_adapt=2 / b_bias=0 / direct=3 / weightb=1 / open_gop=0 / weightp=2 / keyint=240 / keyint_min=24 / scenecut=40 / intra_refresh=0 / rc_lookahead=60 / rc=2pass / mbtree=1 / bitrate=14000 / ratetol=1.0 / qcomp=0.60 / qpmin=0 / qpmax=69 / qpstep=4 / cplxblur=20.0 / qblur=0.5 / vbv_maxrate=62500 / vbv_bufsize=78125 / nal_hrd=none / filler=0 / ip_ratio=1.40 / aq=1:1.00
Language : French
Default : Yes
Forced : No
Color range : Limited
Color primaries : BT.709
Transfer characteristics : BT.709
Matrix coefficients : BT.709

Audio
ID : 2
Format :
Format/Info : Digital Theater Systems
Codec ID : A_DTS
Duration : 1 h 39 min
Bit rate mode : Constant
Bit rate : 1 509 kb/s
Channel(s) : 6 channels
Channel layout : C L R Ls Rs LFE
Sampling rate : 48.0 kHz
Frame rate : 93.750 FPS (512 SPF)
Bit depth : 16 bits
Compression mode : Lossy
Stream size : 1.05 GiB (10%)
Title : [Оригінал] 5.1 @ 1509 Кбіт/с
Language : French
Default : Yes
Forced : No

Text #1
ID : 3
Format : UTF-8
Codec ID : S_TEXT/UTF8
Codec ID/Info : UTF-8 Plain Text
Duration : 1 h 34 min
Bit rate : 32 b/s
Count of elements : 420
Stream size : 22.2 KiB (0%)
Title : Повні
Language : Ukrainian
Default : Yes
Forced : Yes

Text #2
ID : 4
Format : UTF-8
Codec ID : S_TEXT/UTF8
Codec ID/Info : UTF-8 Plain Text
Duration : 1 h 37 min
Bit rate : 17 b/s
Count of elements : 491
Stream size : 12.2 KiB (0%)
Title : Повні
Language : English
Default : No
Forced : No

Menu
00:00:00.000 : en:Chapter 1
00:08:18.331 : en:Chapter 2
00:25:31.947 : en:Chapter 3
00:33:49.944 : en:Chapter 4
00:49:19.289 : en:Chapter 5
00:59:18.805 : en:Chapter 6
01:15:48.961 : en:Chapter 7
01:22:13.345 : en:Chapter 8
Скріншоти











Джерело:


 Трекер:    Зареєстрований   

Завантажити / скачати фільм українською



відео для новачків



 Зареєстрований:   2020-05-25 02:52
 Розмір:   10.76 GB 
 Оцінка фільму:   1/10 (Голосів: 1)
   
Інші релізи
   Мучениці / Martyrs (2008) 720p-mini Fre | Sub Ukr ninenine  3 / 0   2.53 GB   2014-11-30 19:08 
Ваш часовий пояс: GMT + 2 Години

Нова тема   Відповісти