Земля до початку часів 13. Мудрість друзів / The Land Before Time XIII. The Wisdom of Friends (2007) 1080p Ukr/Eng | Sub Eng

Нові коментарі

Нова тема   Відповісти
Автор Повідомлення
sergiyko.5 
Забанено
Забанено


З нами з: 25.02.16
Востаннє: 29.10.20
Повідомлень: 3648

2020-05-24 23:35  
Всі одноіменні релізи на трекері

Земля до початку часів 13. Мудрість друзів / The Land Before Time XIII. The Wisdom of Friends (2007) 1080p Ukr/Eng | Sub Eng


Земля до початку часів 13. Мудрість друзів / The Land Before Time XIII. The Wisdom of Friends (2007) 1080p Ukr/Eng | Sub Eng

Жанр: мультфільм, пригоди, сімейний
Країна: США
Кінокомпанія: Universal Cartoon Studios
Режисер: Джемі Мітчел, Чарльз Гросвенор

Сюжет:
Літлфут, Сера, Спайк, Пітрі й Дакі дуже раді зустріти двох симпатичних і придуркуватих байпіозаврів Луфа і Дуфа, які загубилися по дорозі до далекої Долині Ягід. Луфа і Дуфа здаються занадто дурненькими, щоб самостійно знайти дорогу назад, тому Літлфут і його друзі вирішують допомогти хлопцям та ділячись з ними важливими уроками життя, в тому числі секретом про силу дружби. Коли вони знаходять Долину Ягід, Літлфут розуміє, що незважаючи на те, що їхні нові друзі не усвідомили всіх уроків, вони кумедні та чудові динозаврики.




Тривалість: 01:09:32
Якість:

Відео: кодек: розмір кадру: 1920 х 1080 бітрейт: 5000 кб/с
Аудіо # 1: мова: українська переклад: багатоголосий закадровий (псевдодубляж) кодек: 2.0 бітрейт: 192 кб/с
Озвучення:
Аудіо # 2: мова: англійська переклад: оригінал кодек: + 5.1 бітрейт: 640 кб/с
Субтитри: мова: англійська тип: програмні (м'які) формат: *.srt
Про файл:
General
Unique ID : 17371441994990882649336313851805139605 (0xD119E375089F28A1D2B785EA3A78295)
Complete name : D:\Documents\Torrents\MULTSER_2\The Land Before Time 13.The Wisdom of Friends.2007.1080p..
Format :
Format version : Version 4
File size : 3.64 GiB
Duration : 1 h 15 min
Overall bit rate mode : Variable
Overall bit rate : 6 897 kb/s
Movie name : The Land Before Time 13.The Wisdom of Friends 2007 by sergiyko
Encoded date : UTC 2020-05-24 21:27:55
Writing application : v46.0.0 ('No Deeper Escape') 64-bit
Writing library : libebml v1.3.10 + v1.5.2
Cover : Yes
Attachments : cover.jpeg

Video
ID : 1
Format : AVC
Format/Info : Advanced Video Codec
Format profile : [email protected]
Format settings : CABAC / 4 Ref Frames
Format settings, CABAC : Yes
Format settings, Reference fra : 4 frames
Codec ID : V_MPEG4/ISO/AVC
Duration : 1 h 15 min
Bit rate mode : Variable
Bit rate : 6 062 kb/s
Maximum bit rate : 15.0 Mb/s
Width : 1 920 pixels
Height : 1 080 pixels
Display aspect ratio : 16:9
Frame rate mode : Constant
Frame rate : 23.976 (24000/1001) FPS
Color space : YUV
Chroma subsampling : 4:2:0
Bit depth : 8 bits
Scan type : Progressive
Bits/(Pixel*Frame) : 0.122
Stream size : 3.20 GiB (88%)
Title : The Land Before Time 13.The Wisdom of Friends
Language : English
Default : Yes
Forced : No
Color range : Limited
Color primaries : BT.709
Transfer characteristics : BT.709
Matrix coefficients : BT.709

Audio #1
ID : 2
Format : AC-3
Format/Info : Audio Coding 3
Commercial name : Dolby Digital
Codec ID : A_AC3
Duration : 1 h 15 min
Bit rate mode : Constant
Bit rate : 192 kb/s
Channel(s) : 2 channels
Channel layout : L R
Sampling rate : 48.0 kHz
Frame rate : 31.250 FPS (1536 SPF)
Compression mode : Lossy
Stream size : 104 MiB (3%)
Title : MOV | К1
Language : Ukrainian
Service kind : Complete Main
Default : Yes
Forced : Yes

Audio #2
ID : 3
Format : E-AC-3
Format/Info : Enhanced AC-3
Commercial name : Dolby Digital Plus
Codec ID : A_EAC3
Duration : 1 h 15 min
Bit rate mode : Constant
Bit rate : 640 kb/s
Channel(s) : 6 channels
Channel layout : L R C LFE Ls Rs
Sampling rate : 48.0 kHz
Frame rate : 31.250 FPS (1536 SPF)
Compression mode : Lossy
Delay relative to video : 21 ms
Stream size : 346 MiB (9%)
Title : Original
Language : English
Service kind : Complete Main
Default : No
Forced : No

Text
ID : 4
Format : UTF-8
Codec ID : S_TEXT/UTF8
Codec ID/Info : UTF-8 Plain Text
Duration : 1 h 11 min
Bit rate : 40 b/s
Count of elements : 830
Stream size : 21.1 KiB (0%)
Language : English
Default : No
Forced : No
Скріншоти:


Запис: xslim
Зведення: sergiyko


 Трекер:    Зареєстрований   

Завантажити / скачати мультфільм українською



відео для новачків



 Зареєстрований:   2020-05-24 23:35
 Розмір:   3.64 GB 
 Оцінка мультфільму:   9.7/10 (Голосів: 6)
   
MutuLI 
Відео Гуртом - фільмокрай
Відео Гуртом - фільмокрай


З нами з: 08.03.09
Востаннє: 05.03.21
Повідомлень: 2105

2020-05-25 19:22  
Дякую. Тепер всі 14 частин з українським озвученням.
max factor 
Частий відвідувач


З нами з: 08.01.19
Востаннє: 01.02.21
Повідомлень: 42

2020-06-19 21:18  
Величезне дякую. Всі 14 частин в наявності завдяки автору. Батьківщина вас не забуде.
[email protected] 
Новенький


З нами з: 15.01.11
Востаннє: 26.02.21
Повідомлень: 4

2020-06-23 21:30  
Величезне дякую, проте на толоці не вистачає 6, 7 та 11 частин в HD якості.
Ваш часовий пояс: GMT + 2 Години

Нова тема   Відповісти