Паперовий будинок (Сезон 3) / La Casa de Papel / Money Heist (Season 3) (2019) Ukr/Spa

Нові коментарі

Нова тема   Відповісти
Автор Повідомлення
Цікава ідея 
VIP


З нами з: 26.12.11
Востаннє: 29.09.20
Повідомлень: 668

2020-05-24 23:04  
1 сезон: | AVC | 1080p
2 сезон: | AVC | 1080p
3 сезон: | AVC | 1080p
4 сезон: | AVC | 1080p

Паперовий будинок (Сезон 3) / La Casa de Papel / Money Heist (Season 3) (2019) Ukr/Spa


Паперовий будинок (Сезон 3) / La Casa de Papel / Money Heist (Season 3) (2019) Ukr/Spa


Жанр: бойовик, детектив, кримінальний, трилер
Країна: Іспанія



Кінокомпанія / телеканал: Vancouver Media, Netflix
Режисери: Хесус Кольменар, Алекс Родріго, Алехандро Бассоно
Актори: Едан Мосес, Урсула Корберо, Іціар Ітуньйо, Альваро Морте, Педро Алонсо, Альба Флоренс, Мігель Ерран

Сюжет:
Щоб здійснити найбільше пограбування в історії таємничий «Професор» знаходить вісім грабіжників, яким нічого втрачати. П'ять місяців підготовки й тренувань, щоб пограбувати одне з найбільш захищених місць Іспанії - Національний монетний двір.


Перекладено та озвучено ТО "Цікава Ідея" за підтримки fishMD


Український трейлер в нашому озвученні.


ЯКЩО НЕ ПРАЦЮЄ ТИЦЬ СЮДИ


Тривалість: 1 серія: ~ 40 хв. (цілком серій: 8)
Перелік серій:

01. Episode 1
02. Episode 2
03. Episode 3
04. Episode 4
05. Episode 5
06. Episode 6
07. Episode 7
08. Episode 8
Якість:
Відео:
кодек:
розмір кадру: 720 x 400
бітрейт: ~ 2 100 кб/с

Аудіо # 1:
мова: українська | "Цікава Ідея"
переклад: професійний багатоголосий закадровий
кодек: 5.1
бітрейт: 448 кб/с

Аудіо # 2:
мова: іспанська
переклад: оригінал
кодек: 5.1
бітрейт: 448 кб/с
Info
Код:
Format                      : AVI
Format/Info                 : Audio Video Interleave
File size                   : 1 019 MiB
Duration                    : 49 min 50 s
Overall bit rate            : 2 859 kb/s
Movie name                  : Паперовий Р±СѓРґРёРЅРѕРє / Money Heist - S03E01 (2019) 1080p [Ukr.Spa] [Цікава Ідея]
Writing application         : Lavf58.20.100

Video
ID                          : 0
Format                      : MPEG-4 Visual
Format profile              : Advanced [email protected]
Format settings             : BVOP1
Format settings, BVOP       : 1
Format settings, QPel       : No
Format settings, GMC        : No warppoints
Format settings, Matrix     : Default (H.263)
Codec ID                    :
Codec ID/Hint               :
Duration                    : 49 min 50 s
Bit rate                    : 1 947 kb/s
Width                       : 720 pixels
Height                      : 400 pixels
Display aspect ratio        : 16:9
Frame rate                  : 24.000 FPS
Color space                 : YUV
Chroma subsampling          : 4:2:0
Bit depth                   : 8 bits
Scan type                   : Progressive
Compression mode            : Lossy
Bits/(Pixel*Frame)          : 0.282
Stream size                 : 694 MiB (68%)
Writing library             : 67

Audio #1
ID                          : 1
Format                      : AC-3
Format/Info                 : Audio Coding 3
Commercial name             : Dolby Digital
Codec ID                    : 2000
Duration                    : 49 min 50 s
Bit rate mode               : Constant
Bit rate                    : 448 kb/s
Channel(s)                  : 6 channels
Channel layout              : L R C LFE Ls Rs
Sampling rate               : 48.0 kHz
Frame rate                  : 31.250 FPS (1536 SPF)
Bit depth                   : 16 bits
Compression mode            : Lossy
Stream size                 : 160 MiB (16%)
Alignment                   : Aligned on interleaves
Interleave, duration        : 32  ms (0.77 video frame)
Title                       : Українська
Service kind                : Complete Main

Audio #2
ID                          : 2
Format                      : AC-3
Format/Info                 : Audio Coding 3
Commercial name             : Dolby Digital
Codec ID                    : 2000
Duration                    : 49 min 50 s
Bit rate mode               : Constant
Bit rate                    : 448 kb/s
Channel(s)                  : 6 channels
Channel layout              : L R C LFE Ls Rs
Sampling rate               : 48.0 kHz
Frame rate                  : 31.250 FPS (1536 SPF)
Bit depth                   : 16 bits
Compression mode            : Lossy
Stream size                 : 160 MiB (16%)
Alignment                   : Aligned on interleaves
Interleave, duration        : 32  ms (0.77 video frame)
Service kind                : Complete Main
Скріншоти



Озвучено творчим об'єднанням:
Переклад: Федір Сидорук.
Ролі озвучили: Семен Птаха, Олексій Сафін, Юлія Малахова, Андрій Корзаченко та Олександр Чернов.
Подяка за ріпи в avi: antik_2008


Авторський реліз (завантажувати можна без реєстрації)
 Трекер:    Зареєстрований   

Завантажити / скачати серіал українською



відео для новачків



 Зареєстрований:   2020-05-26 23:07
 Розмір:   7.87 GB 
 Оцінка серіалу:   9.5/10 (Голосів: 22)
 Переклали та озвучили 3й сезон.
   
bot 
робот


З нами з: 30.09.07
Востаннє: 26.05.05
Повідомлень: 25652

2020-05-26 23:07  
Тему перенесено з Анонси релізів до форуму Телесеріали


Цікава ідея

Цікава ідея 
VIP


З нами з: 26.12.11
Востаннє: 29.09.20
Повідомлень: 668

2020-05-26 23:08  
Переклали та озвучили 1-8 серії!
Бажаємо приємного перегляду!


Подяка за ріпи в avi: antik_2008

vitalitZU 
Свій


З нами з: 17.12.10
Востаннє: 26.09.20
Повідомлень: 73

2020-06-01 00:07  
3 сезони за вихідні на одному диханні, дякую за переклад, серіал бомба
Ваш часовий пояс: GMT + 2 Години

Нова тема   Відповісти