Морський піхотинець 4: Рухома мішень / The Marine 4: Moving Target (2015) AVC

Нові коментарі

Нова тема   Відповісти
Автор Повідомлення
Arsenfpu 
Відео Гуртом - фільмокрай
Відео Гуртом - фільмокрай


З нами з: 30.04.09
Востаннє: 02.07.20
Повідомлень: 7028

2020-05-24 22:04  
Морський піхотинець 4: Рухома мішень / The Marine 4: Moving Target (2015) AVC

Морський піхотинець 4: Рухома мішень / The Marine 4: Moving Target (2015) AVC


Жанр: екшн, кримінальний, драма
Країна: США



Кінокомпанія: WWE Studios
Режисер: Вільям Кауфман
Актори: Мелісса Роксбур, Майк Мізанін, Меттью МакКоулл, Пол МакДжілліон, Даніель Муані, Кертіс Караваджо, Фрейзер Айтчесон, Джош Блекер, Прімо Аллон, Тодд Дженкінс

Сюжет:
У рамках приватної практики Картер береться за нове завдання: захист "особливо цінного вантажу" - прекрасної викривальниці, яка намагається викрити корумпованого постачальника оборонного комплексу. Озброєні до зубів найманці йдуть по її слідах, готові знищити кожного, хто стане у них на шляху - але безжалісний боєць-профі не боїться кинути їм виклик.


Тривалість: 01:30:14
Якість:
Відео:
кодек:
розмір кадру: 1 024 х 576
бітрейт: 3 500 кб/с

Аудіо:
мова: українська
переклад: багатоголосий закадровий
кодек: 2.0
бітрейт: 192 кб/с
Скріншоти














Про файл
General
Unique ID : 284624105530924555134809220040955902446 (0xD6209BD896EBC4074C536657ED85B9EE)
Complete name : C:\The Marine 4. Moving Target (2015) AVC [Hurtom].
Format :
Format version : Version 4 / Version 2
File size : 2.32 GiB
Duration : 1 h 30 min
Overall bit rate : 3 687 kb/s
Movie name : Морський піхотинець 4: Рухома мішень / The Marine 4: Moving Target (2015)
Encoded date : UTC 2020-05-24 18:29:31
Writing application : v21.0.0 ('Tardigrades Will Inherit The Earth') 32-bit
Writing library : libebml v1.3.5 + v1.4.8
Cover : Yes
Attachments : cover.jpg

Video
ID : 1
Format : AVC
Format/Info : Advanced Video Codec
Format profile : [email protected]
Format settings, CABAC : Yes
Format settings, ReFrames : 10 frames
Codec ID : V_MPEG4/ISO/AVC
Duration : 1 h 30 min
Bit rate : 3 500 kb/s
Width : 1 024 pixels
Height : 576 pixels
Display aspect ratio : 16:9
Frame rate mode : Constant
Frame rate : 23.976 (24000/1001) FPS
Color space : YUV
Chroma subsampling : 4:2:0
Bit depth : 8 bits
Scan type : Progressive
Bits/(Pixel*Frame) : 0.247
Stream size : 2.20 GiB (95%)
Writing library : core 133 r2334 a3ac64b
Encoding settings : cabac=1 / ref=10 / deblock=1:-2:-2 / analyse=0x3:0x113 / me=umh / subme=10 / psy=1 / psy_rd=1.00:0.10 / mixed_ref=1 / me_range=32 / chroma_me=1 / trellis=2 / 8x8dct=1 / cqm=0 / deadzone=21,11 / fast_pskip=0 / chroma_qp_offset=-3 / threads=12 / lookahead_threads=2 / sliced_threads=0 / nr=0 / decimate=0 / interlaced=0 / bluray_compat=0 / constrained_intra=0 / bframes=8 / b_pyramid=2 / b_adapt=2 / b_bias=0 / direct=3 / weightb=1 / open_gop=0 / weightp=2 / keyint=240 / keyint_min=23 / scenecut=40 / intra_refresh=0 / rc=2pass / mbtree=0 / bitrate=3500 / ratetol=1.0 / qcomp=0.65 / qpmin=0 / qpmax=51 / qpstep=4 / cplxblur=20.0 / qblur=0.5 / ip_ratio=1.40 / pb_ratio=1.30 / aq=1:1.00
Language : English
Default : Yes
Forced : No
Color range : Limited
Color primaries : BT.709
Transfer characteristics : BT.709
Matrix coefficients : BT.709

Audio
ID : 2
Format : AC-3
Format/Info : Audio Coding 3
Mode extension : CM (complete main)
Format settings, Endianness : Big
Codec ID : A_AC3
Duration : 1 h 30 min
Bit rate mode : Constant
Bit rate : 192 kb/s
Channel(s) : 2 channels
Channel positions : Front: L R
Sampling rate : 48.0 kHz
Frame rate : 31.250 FPS (1536 spf)
Compression mode : Lossy
Stream size : 124 MiB (5%)
Default : Yes
Forced : No
Джерело:
За постер дякую пану Wrestling Ukraine
Особиста оцінка: не дивився


 Трекер:    Зареєстрований   

Завантажити / скачати фільм українською



відео для новачків



 Зареєстрований:   2020-05-24 22:04
 Розмір:   2.32 GB 
 Оцінка фільму:   8.6/10 (Голосів: 14)
   
Комбат1995 
Поважний учасник


З нами з: 09.01.16
Востаннє: 02.07.20
Повідомлень: 154

2020-05-25 00:47  
Є ще й 5 та 6...й там знову Міз...
Wrestling Ukraine 
Свій


З нами з: 10.09.17
Востаннє: 02.07.20
Повідомлень: 52

2020-05-25 13:58  
А за ось це Дякую ..

А то разів два просив і думав в "молоко")

Додано через 6 хвилин 57 секунд:

Комбат1995 написано:
The Marine


Та в 5 там взагалі ціла "бригада" від WWE))

Ваш часовий пояс: GMT + 2 Години

Нова тема   Відповісти