Паперовий будинок (Сезон 2) / La Casa de Papel / Money Heist (Season 2) (2017) Ukr/Spa

Нові коментарі

Нова тема   Відповісти
Автор Повідомлення
Цікава ідея 
VIP


З нами з: 26.12.11
Востаннє: 25.09.20
Повідомлень: 666

2020-05-24 20:56  
1 сезон: | AVC | 1080p
2 сезон: | AVC | 1080p
3 сезон: | AVC | 1080p
4 сезон: | AVC | 1080p

Паперовий будинок (Сезон 2) / La Casa de Papel / Money Heist (Season 2) (2017) Ukr/Spa

Паперовий будинок (Сезон 2) / La Casa de Papel / Money Heist (Season 2) (2017) Ukr/Spa


Жанр: бойовик, детектив, кримінальний, трилер
Країна: Іспанія



Кінокомпанія / телеканал: Vancouver Media, Netflix
Режисери: Хесус Кольменар, Алекс Родріго, Алехандро Бассоно
Актори: Едан Мосес, Урсула Корберо, Іціар Ітуньйо, Альваро Морте, Педро Алонсо, Альба Флоренс, Мігель Ерран

Сюжет:
Щоб здійснити найбільше пограбування в історії таємничий «Професор» знаходить вісім грабіжників, яким нічого втрачати. П'ять місяців підготовки й тренувань, щоб пограбувати одне з найбільш захищених місць Іспанії - Національний монетний двір.


Перекладено та озвучено ТО "Цікава Ідея" за підтримки fishMD


Український трейлер в нашому озвученні.


ЯКЩО НЕ ПРАЦЮЄ ТИЦЬ СЮДИ


Тривалість: 1 серія: ~ 40 хв. (цілком серій: 9)
Перелік серій:

01. Episode 1
02. Episode 2
03. Episode 3
04. Episode 4
05. Episode 5
06. Episode 6
07. Episode 7
08. Episode 8
09. Episode 9
Якість:
Відео:
кодек:
розмір кадру: 720 x 400
бітрейт: ~ 2 200 кб/с

Аудіо # 1:
мова: українська | "Цікава Ідея"
переклад: професійний багатоголосий закадровий
кодек: 2.0
бітрейт: 192 кб/с

Аудіо # 2:
мова: іспанська
переклад: оригінал
кодек: E- 2.0
бітрейт: 128 кб/с
Info
Код:
Format                      : AVI
Format/Info                 : Audio Video Interleave
File size                   : 779 MiB
Duration                    : 42 min 56 s
Overall bit rate            : 2 538 kb/s
Movie name                  : Паперовий Р±СѓРґРёРЅРѕРє / Money Heist - S02E01 (2017) 1080p [Ukr.Spa] [Цікава Ідея]
Writing application         : Lavf58.20.100

Video
ID                          : 0
Format                      : MPEG-4 Visual
Format profile              : Advanced [email protected]
Format settings             : BVOP1
Format settings, BVOP       : 1
Format settings, QPel       : No
Format settings, GMC        : No warppoints
Format settings, Matrix     : Default (H.263)
Codec ID                    :
Codec ID/Hint               :
Duration                    : 42 min 56 s
Bit rate                    : 2 137 kb/s
Width                       : 720 pixels
Height                      : 400 pixels
Display aspect ratio        : 16:9
Frame rate                  : 25.000 FPS
Color space                 : YUV
Chroma subsampling          : 4:2:0
Bit depth                   : 8 bits
Scan type                   : Progressive
Compression mode            : Lossy
Bits/(Pixel*Frame)          : 0.297
Stream size                 : 656 MiB (84%)
Writing library             : 67

Audio #1
ID                          : 1
Format                      : AC-3
Format/Info                 : Audio Coding 3
Commercial name             : Dolby Digital
Codec ID                    : 2000
Duration                    : 42 min 56 s
Bit rate mode               : Constant
Bit rate                    : 192 kb/s
Channel(s)                  : 2 channels
Channel layout              : L R
Sampling rate               : 48.0 kHz
Frame rate                  : 31.250 FPS (1536 SPF)
Bit depth                   : 16 bits
Compression mode            : Lossy
Stream size                 : 59.0 MiB (8%)
Alignment                   : Aligned on interleaves
Interleave, duration        : 32  ms (0.80 video frame)
Title                       : Українська
Service kind                : Complete Main

Audio #2
ID                          : 2
Format                      : AC-3
Format/Info                 : Audio Coding 3
Commercial name             : Dolby Digital
Codec ID                    : 2000
Duration                    : 42 min 56 s
Bit rate mode               : Constant
Bit rate                    : 192 kb/s
Channel(s)                  : 2 channels
Channel layout              : L R
Sampling rate               : 48.0 kHz
Frame rate                  : 31.250 FPS (1536 SPF)
Bit depth                   : 16 bits
Compression mode            : Lossy
Stream size                 : 59.0 MiB (8%)
Alignment                   : Aligned on interleaves
Interleave, duration        : 32  ms (0.80 video frame)
Title                       : European Spanish
Service kind                : Complete Main
Скріншоти



Озвучено творчим об'єднанням:
Переклад: Федір Сидорук.
Ролі озвучили: Семен Птаха, Олексій Сафін, Юлія Малахова, Андрій Корзаченко та Олександр Чернов.
Подяка за ріпи в avi: antik_2008


Авторський реліз (завантажувати можна без реєстрації)
 Трекер:    Зареєстрований   

Завантажити / скачати серіал українською



відео для новачків



 Зареєстрований:   2020-05-24 20:56
 Розмір:   6.89 GB 
 Оцінка серіалу:   9.3/10 (Голосів: 24)
   
Цікава ідея 
VIP


З нами з: 26.12.11
Востаннє: 25.09.20
Повідомлень: 666

2020-05-24 20:59  
Переклали та озвучили 1-9 серії!
Бажаємо приємного перегляду!


Подяка за ріпи в avi: antik_2008

11FrYkT 
Модератор відео


З нами з: 20.02.11
Востаннє: 24.09.20
Повідомлень: 7004

2020-05-24 22:25  
Цікава ідея написано:

01. Episode 1
02. Episode 2
03. Episode 3
04. Episode 4
05. Episode 5
06. Episode 6
07. Episode 7
08. Episode 8
09. Episode 9

на імдб є оригінальні назви

Ваш часовий пояс: GMT + 2 Години

Нова тема   Відповісти