Ніл Страйкер і тиран часу / Neil Stryker and the Tyrant of Time (2017) AVC

Нові коментарі

Нова тема   Відповісти
Автор Повідомлення
Arsenfpu 
Відео Гуртом - фільмокрай
Відео Гуртом - фільмокрай


З нами з: 30.04.09
Востаннє: 03.07.20
Повідомлень: 7029

2020-05-24 08:56  
Ніл Страйкер і тиран часу / Neil Stryker and the Tyrant of Time (2017) AVC

Ніл Страйкер і тиран часу / Neil Stryker and the Tyrant of Time (2017) AVC


Жанр: екшн, пригодницький, комедія
Країна: США



Кінокомпанія: Lombo Bardi Productions, Taylor Twin Pictures
Режисер: Роб Тейлор
Актори: Роб Тейлор, Нік Коста, Стівен Ліски, Девід Огден Стайерс, Уолтер Кеніг, Майкл Фрідріхс, Бріна Сміт, Метт Зак, Джордана Енслі, Требен Плезент, Джаред МакКлейн, Боббі Райан

Сюжет:
Майбутнє. Ніл Страйкер служить в секретному елітному підрозділі. Він - досвідчений агент, але під час виконання останньої місії неправильно розуміє наказ. В результаті Ніла усувають. Тим часом з психіатричної клініки, заручившись допомогою відданого посібника Даррела Фрівея, втікає божевільний учений. Професор відомий тим, що одного разу винайшов машину часу. Але замість того, щоб використовувати це на благо людства, він вирішив підпорядкувати собі всю планету. Після втечі вчений не має наміру відмовлятися від початкового плану, але для початку винахідник хоче поквитатися з Нілом. Страйкер колись працював разом з божевільним професором і представляє для нього реальну загрозу. Багато років тому, усвідомивши безумство начальника, Ніл встиг створити спеціальний пристрій, що допомагає відслідковувати тимчасові стрибки вченого. Тепер агент вважає своїм обов'язком розпочати бійку в протистоянні з негідником і спробувати врятувати світ ...


Тривалість: 01:37:25
Якість:
Відео:
кодек:
розмір кадру: 1 024 х 576
бітрейт: 2 499 кб/с

Аудіо:
мова: українська
переклад: багатоголосий закадровий
кодек: 2.0
бітрейт: 192 кб/с
Скріншоти














Про файл
General
Unique ID : 251749063704084586525763945593121465154 (0xBD651B2483ABDFE16CF74CE4A00EE342)
Complete name : C:\Neil Stryker and the Tyrant of Time (2017) AVC [Hurtom].
Format :
Format version : Version 4 / Version 2
File size : 1.83 GiB
Duration : 1 h 37 min
Overall bit rate : 2 690 kb/s
Movie name : Ніл Страйкер і тиран часу / Neil Stryker and the Tyrant of Time (2017)
Encoded date : UTC 2020-05-26 18:23:14
Writing application : v21.0.0 ('Tardigrades Will Inherit The Earth') 32-bit
Writing library : libebml v1.3.5 + v1.4.8
Cover : Yes
Attachments : cover.jpg

Video
ID : 1
Format : AVC
Format/Info : Advanced Video Codec
Format profile : [email protected]
Format settings, CABAC : Yes
Format settings, ReFrames : 4 frames
Codec ID : V_MPEG4/ISO/AVC
Duration : 1 h 37 min
Bit rate : 2 499 kb/s
Width : 1 024 pixels
Height : 576 pixels
Display aspect ratio : 16:9
Frame rate mode : Constant
Frame rate : 23.976 (24000/1001) FPS
Color space : YUV
Chroma subsampling : 4:2:0
Bit depth : 8 bits
Scan type : Progressive
Bits/(Pixel*Frame) : 0.177
Stream size : 1.70 GiB (93%)
Writing library : core 157 r2935 545de2f
Encoding settings : cabac=1 / ref=3 / deblock=1:-1:-1 / analyse=0x3:0x113 / me=hex / subme=7 / psy=1 / psy_rd=1.00:0.15 / mixed_ref=1 / me_range=16 / chroma_me=1 / trellis=1 / 8x8dct=1 / cqm=0 / deadzone=21,11 / fast_pskip=1 / chroma_qp_offset=-3 / threads=12 / lookahead_threads=2 / sliced_threads=0 / nr=0 / decimate=1 / interlaced=0 / bluray_compat=0 / constrained_intra=0 / bframes=3 / b_pyramid=2 / b_adapt=1 / b_bias=0 / direct=1 / weightb=1 / open_gop=0 / weightp=2 / keyint=240 / keyint_min=23 / scenecut=40 / intra_refresh=0 / rc_lookahead=40 / rc=2pass / mbtree=1 / bitrate=2499 / ratetol=1.0 / qcomp=0.60 / qpmin=0 / qpmax=69 / qpstep=4 / cplxblur=20.0 / qblur=0.5 / ip_ratio=1.40 / aq=1:1.00
Default : Yes
Forced : No

Audio
ID : 2
Format : AC-3
Format/Info : Audio Coding 3
Mode extension : CM (complete main)
Format settings, Endianness : Big
Codec ID : A_AC3
Duration : 1 h 37 min
Bit rate mode : Constant
Bit rate : 192 kb/s
Channel(s) : 2 channels
Channel positions : Front: L R
Sampling rate : 48.0 kHz
Frame rate : 31.250 FPS (1536 spf)
Compression mode : Lossy
Stream size : 134 MiB (7%)
Title : 2+2
Language : Ukrainian
Default : Yes
Forced : Yes
Джерело:
За запис з ТБ дякую пану Bohdan237
Особиста оцінка: не дивився


 Трекер:    Зареєстрований   

Завантажити / скачати фільм українською



відео для новачків



 Зареєстрований:   2020-05-26 22:05
 Розмір:   1.83 GB 
 Оцінка фільму:   5.5/10 (Голосів: 8)
   
bot 
робот


З нами з: 30.09.07
Востаннє: 26.05.05
Повідомлень: 24917

2020-05-26 22:05  
Тему перенесено з Анонси релізів до форуму Фільми


Arsenfpu

IRONHIDE 
VIP


З нами з: 06.08.10
Востаннє: 02.07.20
Повідомлень: 278

2020-05-27 09:10  
0.
Ваш часовий пояс: GMT + 2 Години

Нова тема   Відповісти