Людина листопада / The November Man (2014) AVC 2xUkr/Eng | sub Eng

Нові коментарі

Нова тема   Відповісти
Автор Повідомлення
Arsenfpu 
Відео Гуртом - фільмокрай
Відео Гуртом - фільмокрай


З нами з: 30.04.09
Востаннє: 02.07.20
Повідомлень: 7028

2020-05-24 08:53  
Людина листопада / The November Man (2014) AVC 2xUkr/Eng | sub Eng

Людина листопада / The November Man (2014) AVC 2xUkr/Eng | sub Eng


Жанр: екшн, кримінальний, трилер
Країна: США



Кінокомпанія: Relativity Media, Irish DreamTime, SPD Films
Режисер: Роджер Дональдсон
Актори: Пірс Броснан, Люк Брейсі, Ольга Куриленко, Елайза Тейлор, Кетрін Скорсоне, Білл Смітрович, Вілл Паттон

Сюжет:
Екс-агент ЦРУ, мимоволі повернувшись у справу, опиняється в епіцентрі смертельно небезпечної операції розвідувального управління проти російських спецслужб. Головним противником героя стає його колишній учень...


Тривалість: 01:48:21
Якість:
Відео:
кодек:
розмір кадру: 1 024 х 426
бітрейт: 1 824 кб/с

Аудіо # 1:
мова: українська
переклад: професійний дубльований
кодек: 2.0
бітрейт: 192 кб/с

Аудіо # 2:
мова: українська
переклад: багатоголосий закадровий
кодек: 2.0
бітрейт: 192 кб/с

Аудіо # 3:
мова: англійська
переклад: оригінал
кодек: 2.0
бітрейт: 192 кб/с

Субтитри:
мова: англійська
тип: програмні (м'які)
формат: *.srt
Скріншоти














Про файл
General
Unique ID : 25530766915328347974318422435884627799 (0x13350BFE65A1E02F6582BE9754C2F757)
Complete name : C:\The November Man (2014) [2xUkr,Eng] AVC [Hurtom].
Format :
Format version : Version 4 / Version 2
File size : 1.82 GiB
Duration : 1 h 48 min
Overall bit rate : 2 398 kb/s
Movie name : Людина листопада / The November Man (2014)
Encoded date : UTC 2020-06-13 12:04:52
Writing application : v21.0.0 ('Tardigrades Will Inherit The Earth') 32-bit
Writing library : libebml v1.3.5 + v1.4.8
Cover : Yes
Attachments : cover.jpg

Video
ID : 1
Format : AVC
Format/Info : Advanced Video Codec
Format profile : [email protected]
Format settings, CABAC : Yes
Format settings, ReFrames : 10 frames
Codec ID : V_MPEG4/ISO/AVC
Duration : 1 h 48 min
Bit rate : 1 824 kb/s
Width : 1 024 pixels
Height : 426 pixels
Display aspect ratio : 2.40:1
Frame rate mode : Constant
Frame rate : 23.976 (24000/1001) FPS
Color space : YUV
Chroma subsampling : 4:2:0
Bit depth : 8 bits
Scan type : Progressive
Bits/(Pixel*Frame) : 0.174
Stream size : 1.38 GiB (76%)
Writing library : core 142 r2431 ac76440
Encoding settings : cabac=1 / ref=10 / deblock=1:-3:-3 / analyse=0x3:0x133 / me=umh / subme=11 / psy=1 / psy_rd=1.00:0.15 / mixed_ref=1 / me_range=32 / chroma_me=1 / trellis=2 / 8x8dct=1 / cqm=0 / deadzone=21,11 / fast_pskip=0 / chroma_qp_offset=-3 / threads=8 / lookahead_threads=2 / sliced_threads=0 / nr=0 / decimate=0 / interlaced=0 / bluray_compat=0 / constrained_intra=0 / bframes=10 / b_pyramid=2 / b_adapt=2 / b_bias=0 / direct=3 / weightb=1 / open_gop=0 / weightp=2 / keyint=240 / keyint_min=23 / scenecut=40 / intra_refresh=0 / rc_lookahead=60 / rc=2pass / mbtree=1 / bitrate=1824 / ratetol=1.0 / qcomp=0.70 / qpmin=0 / qpmax=69 / qpstep=4 / cplxblur=20.0 / qblur=0.5 / vbv_maxrate=50000 / vbv_bufsize=62500 / nal_hrd=none / filler=0 / ip_ratio=1.40 / aq=1:1.00
Language : English
Default : Yes
Forced : Yes

Audio #1
ID : 2
Format : AC-3
Format/Info : Audio Coding 3
Mode extension : CM (complete main)
Format settings, Endianness : Big
Codec ID : A_AC3
Duration : 1 h 48 min
Bit rate mode : Constant
Bit rate : 192 kb/s
Channel(s) : 2 channels
Channel positions : Front: L R
Sampling rate : 48.0 kHz
Frame rate : 31.250 FPS (1536 spf)
Compression mode : Lossy
Stream size : 149 MiB (8%)
Language : Ukrainian
Default : Yes
Forced : Yes

Audio #2
ID : 3
Format : AC-3
Format/Info : Audio Coding 3
Mode extension : CM (complete main)
Format settings, Endianness : Big
Codec ID : A_AC3
Duration : 1 h 48 min
Bit rate mode : Constant
Bit rate : 192 kb/s
Channel(s) : 2 channels
Channel positions : Front: L R
Sampling rate : 48.0 kHz
Frame rate : 31.250 FPS (1536 spf)
Compression mode : Lossy
Stream size : 149 MiB (8%)
Title : 2+2
Language : Ukrainian
Default : No
Forced : No

Audio #3
ID : 4
Format : AC-3
Format/Info : Audio Coding 3
Mode extension : CM (complete main)
Format settings, Endianness : Big
Codec ID : A_AC3
Duration : 1 h 48 min
Bit rate mode : Constant
Bit rate : 192 kb/s
Channel(s) : 2 channels
Channel positions : Front: L R
Sampling rate : 48.0 kHz
Frame rate : 31.250 FPS (1536 spf)
Compression mode : Lossy
Stream size : 149 MiB (8%)
Language : English
Default : No
Forced : No

Text #1
ID : 5
Format : UTF-8
Codec ID : S_TEXT/UTF8
Codec ID/Info : UTF-8 Plain Text
Duration : 1 h 41 min
Bit rate : 40 b/s
Count of elements : 962
Stream size : 30.1 KiB (0%)
Title : Full - ENG - BD
Language : English
Default : No
Forced : No

Text #2
ID : 6
Format : UTF-8
Codec ID : S_TEXT/UTF8
Codec ID/Info : UTF-8 Plain Text
Duration : 1 h 42 min
Bit rate : 45 b/s
Count of elements : 1138
Stream size : 33.7 KiB (0%)
Title : SDH - ENG - BD
Language : English
Default : No
Forced : No

Text #3
ID : 7
Format : UTF-8
Codec ID : S_TEXT/UTF8
Codec ID/Info : UTF-8 Plain Text
Duration : 1 h 42 min
Bit rate : 55 b/s
Count of elements : 1138
Stream size : 41.2 KiB (0%)
Title : SDH-COLORED - ENG - BD
Language : English
Default : No
Forced : No

Menu
00:00:00.000 : en:Chapter 01
00:04:59.716 : en:Chapter 02
00:09:59.724 : en:Chapter 03
00:15:00.316 : en:Chapter 04
00:19:59.948 : en:Chapter 05
00:24:59.706 : en:Chapter 06
00:29:59.631 : en:Chapter 07
00:34:59.806 : en:Chapter 08
00:39:59.730 : en:Chapter 09
00:44:59.738 : en:Chapter 10
00:50:00.080 : en:Chapter 11
00:55:00.380 : en:Chapter 12
00:59:59.846 : en:Chapter 13
01:04:59.854 : en:Chapter 14
01:09:59.737 : en:Chapter 15
01:14:59.703 : en:Chapter 16
01:20:00.378 : en:Chapter 17
01:24:59.969 : en:Chapter 18
01:29:59.977 : en:Chapter 19
01:35:00.319 : en:Chapter 20
01:39:59.827 : en:Chapter 21
01:45:00.252 : en:Chapter 22
Джерело:
За українські доріжки дякую п. 11FrYkT, patriot2305, Sando7, Bohdan237, kinaxem
Особиста оцінка: не дивився


 Трекер:    Зареєстрований   

Завантажити / скачати фільм українською



відео для новачків



 Зареєстрований:   2020-06-13 15:43
 Розмір:   1.82 GB 
 Оцінка фільму:   9.5/10 (Голосів: 8)
   
Інші релізи
bot 
робот


З нами з: 30.09.07
Востаннє: 26.05.05
Повідомлень: 24915

2020-06-13 15:43  
Тему перенесено з Анонси релізів до форуму Фільми


Arsenfpu

pavlo-kyiv 
Частий відвідувач


З нами з: 01.05.16
Востаннє: 02.07.20
Повідомлень: 34

2020-06-14 10:38  
Фідбм з україночкою з Бердянська можна і подивитися.
rodion1979 
Новенький


З нами з: 05.09.14
Востаннє: 28.06.20
Повідомлень: 11

2020-06-14 13:41  
pavlo-kyiv
Яка нещодавно заявила, що робила тест ДНК. І в її крові не виявлено української крові.
На жаль, Куриленко, ще один совок, а не українка

watcher3105 
Частий відвідувач


З нами з: 21.01.17
Востаннє: 29.06.20
Повідомлень: 36

2020-06-19 11:46  
Ганий фільм. 9/10
Ваш часовий пояс: GMT + 2 Години

Нова тема   Відповісти