Могутній Квін / The Mighty Quinn (1989) 1080p 2xUkr/Eng | Sub Eng

Нові коментарі

Нова тема   Відповісти
Останній раз роздавалося drop_plz (2020-06-01)
Автор Повідомлення
Anonymous 







2020-05-23 18:29  
Могутній Квін / The Mighty Quinn (1989) 1080p 2xUkr/Eng | Sub Eng

Могутній Квін / The Mighty Quinn (1989) 1080p 2xUkr/Eng | Sub Eng


Жанр: бойовик, трилер, драма, кримінальний, детектив
Країна: США



Кінокомпанія: A&M Films, Metro-Goldwyn-Mayer (MGM), Star Partners II Ltd.
Режисер: Карл Шенкель
Актори: Дензел Вашинґтон, Джеймс Фокс, Мімі Роджерс, М. Еммет Волш, Шеріл Лі Ральф, Арт Еванс, Естер Роллі, Норман Бітон, Алекс Колон, Роберт Таунзенд

Сюжет:
Один з Карибських островів. Чорношкірий поліцейський веде розслідування вбивства, до якого причетні люди з вищого суспільства. Вони, звісно, хочуть приховати правду. Будучи хорошим поліцейським і прагнучи розплутати справу, наш герой ігнорує попередження місцевих білих шишок і навіть губернатора...


Тривалість: 01:38:42
Якість: 1080p
Відео:
кодек:
розмір кадру: 1920х1040
бітрейт: 14000 кб/с

Аудіо # 1:
мова: українська
переклад: багатоголосий закадровий
кодек: 2.0
бітрейт: 192 кб/с

Аудіо # 2:
мова: українська
переклад: двоголосий закадровий
кодек: 2.0
бітрейт: 192 кб/с

Аудіо # 3:
мова: англійська
переклад: оригінал
кодек: 2.0
бітрейт: 1509 кб/с

Субтитри:
мова: англійська
тип: програмні (м'які)
формат: *.srt
Info
General
Unique ID : 172331210172053569040145360570088348140 (0x81A5C8A7443BD33381058A7DC6B6D9EC)
Complete name : E:\Toloka\2020\The Mighty Quinn (1989) 1080p.
Format :
Format version : Version 4
File size : 11.0 GiB
Duration : 1 h 38 min
Overall bit rate : 15.9 Mb/s
Encoded date : UTC 2020-05-23 15:16:46
Writing application : v6.1.0 ('Old Devil') built on Mar 4 2013 09:10:42
Writing library : libebml v1.3.0 + v1.4.0

Video
ID : 1
Format : AVC
Format/Info : Advanced Video Codec
Format profile : [email protected]
Format settings : CABAC / 4 Ref Frames
Format settings, CABAC : Yes
Format settings, RefFrames : 4 frames
Codec ID : V_MPEG4/ISO/AVC
Duration : 1 h 38 min
Bit rate : 14.0 Mb/s
Width : 1 920 pixels
Height : 1 040 pixels
Display aspect ratio : 1.85:1
Frame rate mode : Constant
Frame rate : 23.976 (24000/1001) FPS
Color space : YUV
Chroma subsampling : 4:2:0
Bit depth : 8 bits
Scan type : Progressive
Bits/(Pixel*Frame) : 0.292
Stream size : 9.43 GiB (86%)
Writing library : core 146 r2538 121396c
Encoding settings : cabac=1 / ref=4 / deblock=1:-1:-1 / analyse=0x3:0x133 / me=umh / subme=11 / psy=1 / psy_rd=1.00:0.00 / mixed_ref=1 / me_range=32 / chroma_me=1 / trellis=2 / 8x8dct=1 / cqm=0 / deadzone=21,11 / fast_pskip=0 / chroma_qp_offset=-2 / threads=12 / lookahead_threads=2 / sliced_threads=0 / nr=0 / decimate=0 / interlaced=0 / bluray_compat=0 / constrained_intra=0 / bframes=14 / b_pyramid=2 / b_adapt=2 / b_bias=0 / direct=3 / weightb=1 / open_gop=0 / weightp=2 / keyint=240 / keyint_min=23 / scenecut=40 / intra_refresh=0 / rc=2pass / mbtree=0 / bitrate=14000 / ratetol=1.0 / qcomp=0.60 / qpmin=0 / qpmax=69 / qpstep=4 / cplxblur=20.0 / qblur=0.5 / ip_ratio=1.40 / pb_ratio=1.30 / aq=2:0.80
Language : English
Default : No
Forced : No

Audio #1
ID : 2
Format : AC-3
Format/Info : Audio Coding 3
Commercial name : Dolby Digital
Codec ID : A_AC3
Duration : 1 h 38 min
Bit rate mode : Constant
Bit rate : 192 kb/s
Channel(s) : 2 channels
Channel layout : L R
Sampling rate : 48.0 kHz
Frame rate : 31.250 FPS (1536 SPF)
Bit depth : 16 bits
Compression mode : Lossy
Stream size : 136 MiB (1%)
Title : UKR (AMC)
Language : Ukrainian
Service kind : Complete Main
Default : Yes
Forced : Yes

Audio #2
ID : 3
Format : AC-3
Format/Info : Audio Coding 3
Commercial name : Dolby Digital
Codec ID : A_AC3
Duration : 1 h 38 min
Bit rate mode : Constant
Bit rate : 192 kb/s
Channel(s) : 2 channels
Channel layout : L R
Sampling rate : 48.0 kHz
Frame rate : 31.250 FPS (1536 SPF)
Bit depth : 16 bits
Compression mode : Lossy
Stream size : 136 MiB (1%)
Title : UKR (Enter)
Language : Ukrainian
Service kind : Complete Main
Default : No
Forced : No

Audio #3
ID : 4
Format :
Format/Info : Digital Theater Systems
Codec ID : A_DTS
Duration : 1 h 38 min
Bit rate mode : Constant
Bit rate : 1 509 kb/s
Channel(s) : 2 channels
Channel layout : L R
Sampling rate : 48.0 kHz
Frame rate : 93.750 FPS (512 SPF)
Bit depth : 24 bits
Compression mode : Lossy
Stream size : 1.04 GiB (9%)
Title : ENG
Language : English
Default : No
Forced : No

Text
ID : 5
Format : UTF-8
Codec ID : S_TEXT/UTF8
Codec ID/Info : UTF-8 Plain Text
Title : ENG SDH
Language : English
Default : No
Forced : No

Menu
00:00:00.000 : en:CHAPTER 01
00:00:10.927 : en:CHAPTER 02
00:11:36.028 : en:CHAPTER 03
00:24:01.898 : en:CHAPTER 04
00:35:00.264 : en:CHAPTER 05
00:47:32.933 : en:CHAPTER 06
00:58:18.536 : en:CHAPTER 07
01:11:57.062 : en:CHAPTER 08
01:24:43.953 : en:CHAPTER 09
01:38:53.135 : en:
Скріншоти







За доріжки подяка п.: Arsenfpu, Sando7, omm, slavik_v_z, POMEO
Особиста подяка пану denixx за надану матеріальну допомогу на підтримку цього і майбутніх релізів.
Джерело:


Срібний реліз (на рейтинг впливає 50% завантаженого)
 Трекер:    Зареєстрований   

Завантажити / скачати фільм українською



відео для новачків



 Зареєстрований:   2020-05-23 18:29
 Розмір:   10.95 GB 
 Оцінка фільму:   10/10 (Голосів: 2)
   
Інші релізи
   Могутній Квін / The Mighty Quinn (1989) 2xUkr/Eng Arsenfpu  2 / 0   1.93 GB   2016-10-18 21:26 
Ваш часовий пояс: GMT + 2 Години

Нова тема   Відповісти