Довга ніч / Big Night (1996) AVC Ukr/Eng | sub Eng

Нові коментарі

Нова тема   Відповісти
Автор Повідомлення
Arsenfpu 
Відео Гуртом - фільмокрай
Відео Гуртом - фільмокрай


З нами з: 30.04.09
Востаннє: 01.10.20
Повідомлень: 7271

2020-05-23 18:09  
Довга ніч / Big Night (1996) AVC Ukr/Eng | sub Eng

Довга ніч / Big Night (1996) AVC Ukr/Eng | sub Eng


Жанр: драма, романтичний
Країна: США



Кінокомпанія: Rysher Entertainment, Timpano Production
Режисер: Кемпбелл Скотт, Стенлі Туччі
Актори: Марк Ентоні, Тоні Шелуб, Стенлі Туччі, Ларрі Блок, Керолайн Аарон, Андре Белгредер, Мінні Драйвер, Пітер МакРоббі, Ізабелла Росселліні, Лів Шрайбер, Паскуале Каджано, Крістін Туччі

Сюжет:
Прімо і Секондо - брати, які емігрували з Італії, щоб відкрити в США італійський ресторан. Прімо - запальний і талановитий кухар, який не хоче витрачати свій талант на пересічні страви, які очікують клієнти. Секондо намагається підтримувати ресторан на плаву, хоча у них не так вже й багато відвідувачів, включаючи художника, який платить своїми картинами. Власник сусіднього, надзвичайно успішного ресторану пропонує братам рішення: він запросить свого друга, прекрасного джазового музиканта, щоб він влаштував бенефіс у їх ресторані. Прімо починає готувати свій шедевр, головний банкет всього життя для великої довгої ночі братів.


Тривалість: 01:49:19
Якість:
Відео:
кодек:
розмір кадру: 1 024 х 576
бітрейт: 2 299 кб/с

Аудіо # 1:
мова: українська
переклад: двоголосий закадровий (з 5.1)
кодек: 2.0
бітрейт: 192 кб/с

Аудіо # 2:
мова: англійська, італійська
переклад: оригінал
кодек: 2.0
бітрейт: 192 кб/с

Субтитри:
мова: українська на 1,5 хвилинний неперекладений епізод, яки починається на 21-ій хвилині
тип: програмні (м'які)
формат: *.srt

Субтитри:
мова: англійська
тип: програмні (м'які)
формат: *.srt
Скріншоти














Про файл
General
Unique ID : 137314079931697041135875122938453016515 (0x674DBAD64FE8902332F7C2B3C7A5BFC3)
Complete name : C:\Big Night (1996) [Ukr,Eng] AVC [Hurtom].
Format :
Format version : Version 4 / Version 2
File size : 2.20 GiB
Duration : 1 h 49 min
Overall bit rate : 2 876 kb/s
Movie name : Довга ніч / Big Night (1996)
Encoded date : UTC 2020-05-23 14:11:39
Writing application : v21.0.0 ('Tardigrades Will Inherit The Earth') 32-bit
Writing library : libebml v1.3.5 + v1.4.8
Attachments : 2_ukr_rez.

Video
ID : 1
Format : AVC
Format/Info : Advanced Video Codec
Format profile : [email protected]
Format settings, CABAC : Yes
Format settings, ReFrames : 4 frames
Codec ID : V_MPEG4/ISO/AVC
Duration : 1 h 49 min
Bit rate : 2 299 kb/s
Width : 1 024 pixels
Height : 576 pixels
Display aspect ratio : 16:9
Frame rate mode : Constant
Frame rate : 23.976 (24000/1001) FPS
Color space : YUV
Chroma subsampling : 4:2:0
Bit depth : 8 bits
Scan type : Progressive
Bits/(Pixel*Frame) : 0.163
Stream size : 1.75 GiB (80%)
Writing library : core 157 r2935 545de2f
Encoding settings : cabac=1 / ref=3 / deblock=1:-1:-1 / analyse=0x3:0x113 / me=hex / subme=7 / psy=1 / psy_rd=1.00:0.15 / mixed_ref=1 / me_range=16 / chroma_me=1 / trellis=1 / 8x8dct=1 / cqm=0 / deadzone=21,11 / fast_pskip=1 / chroma_qp_offset=-3 / threads=12 / lookahead_threads=2 / sliced_threads=0 / nr=0 / decimate=1 / interlaced=0 / bluray_compat=0 / constrained_intra=0 / bframes=3 / b_pyramid=2 / b_adapt=1 / b_bias=0 / direct=1 / weightb=1 / open_gop=0 / weightp=2 / keyint=240 / keyint_min=23 / scenecut=40 / intra_refresh=0 / rc_lookahead=40 / rc=2pass / mbtree=1 / bitrate=2299 / ratetol=1.0 / qcomp=0.60 / qpmin=0 / qpmax=69 / qpstep=4 / cplxblur=20.0 / qblur=0.5 / ip_ratio=1.40 / aq=1:1.00
Default : Yes
Forced : No

Audio #1
ID : 2
Format : AC-3
Format/Info : Audio Coding 3
Mode extension : CM (complete main)
Format settings, Endianness : Big
Codec ID : A_AC3
Duration : 1 h 49 min
Bit rate mode : Constant
Bit rate : 192 kb/s
Channel(s) : 2 channels
Channel positions : Front: L R
Sampling rate : 48.0 kHz
Frame rate : 31.250 FPS (1536 spf)
Compression mode : Lossy
Stream size : 150 MiB (7%)
Title : Новий
Language : Ukrainian
Default : Yes
Forced : Yes

Audio #2
ID : 3
Format : AC-3
Format/Info : Audio Coding 3
Mode extension : CM (complete main)
Format settings, Endianness : Big
Codec ID : A_AC3
Duration : 1 h 49 min
Bit rate mode : Constant
Bit rate : 192 kb/s
Channel(s) : 2 channels
Channel positions : Front: L R
Sampling rate : 48.0 kHz
Frame rate : 31.250 FPS (1536 spf)
Compression mode : Lossy
Stream size : 150 MiB (7%)
Language : English
Default : No
Forced : No

Text #1
ID : 4
Format : UTF-8
Codec ID : S_TEXT/UTF8
Codec ID/Info : UTF-8 Plain Text
Duration : 1 min
Bit rate : 84 b/s
Count of elements : 19
Stream size : 884 Bytes (0%)
Language : Ukrainian
Default : Yes
Forced : Yes

Text #2
ID : 5
Format : UTF-8
Codec ID : S_TEXT/UTF8
Codec ID/Info : UTF-8 Plain Text
Duration : 1 h 41 min
Bit rate : 52 b/s
Count of elements : 1158
Stream size : 39.2 KiB (0%)
Language : English
Default : No
Forced : No
Джерело:
За українську доріжку та субтитри дякую п. MAKAPOHHIK, Lan
Особиста оцінка: не дивився


Срібний реліз (на рейтинг впливає 50% завантаженого)
 Трекер:    Зареєстрований   

Завантажити / скачати фільм українською



відео для новачків



 Зареєстрований:   2020-05-23 18:09
 Розмір:   2.2 GB 
 Оцінка фільму:   10/10 (Голосів: 2)
   
Інші релізи
   Довга ніч / Big Night (1996) Ukr/Eng Lan  0 / 3   1.66 GB   2011-10-27 15:28 
Ваш часовий пояс: GMT + 2 Години

Нова тема   Відповісти