Арло: Балакуче порося / Arlo: The Burping Pig (2016) 1080p Ukr/Eng

Нові коментарі

Нова тема   Відповісти
Автор Повідомлення
Anonymous 







2020-05-23 16:47  
Арло: Балакуче порося / Arlo: The Burping Pig (2016) 1080p Ukr/Eng

Арло: Балакуче порося / Arlo: The Burping Pig (2016) 1080p Ukr/Eng


Жанр: сімейний, комедія
Країна: США



Кінокомпанія: Switzer Entertainment Group, Dawn's Light, Safier Entertainment
Режисер: Том ДеНуччі
Актори: Джонатан Ліпнікі, Дрейк Белл, Джоуї Лоуренс, Ліндсі Бланшар, Ембер Монтанья

Сюжет:
Маленькій дівчинці на ім'я Талія нелегко живеться в новому місті. Після переїзду їй так і не вдалося знайти друзів, однокласники недолюблюють її і не бажають приймати. З кожним днем, героїні все складніше і складніше приходити в школу, і тоді її мама вирішується придбати дочці миле маленьке порося, яке стане причиною веселих пригод.


Тривалість: 01:16:26
Якість:
Відео:
кодек:
розмір кадру: 1920 х 1080
бітрейт: 4000 кб/с

Аудіо # 1:
мова: українська
переклад: багатоголосий закадровий
кодек: 2.0
бітрейт: 192 кб/с

Аудіо # 2:
мова: англійська
переклад: оригінал
кодек: 2.0
бітрейт: 192 кб/с

Джерело озвучення:
Info
Format :
Format version : Version 4
File size : 2.34 GiB
Duration : 1 h 16 min
Overall bit rate : 4 387 kb/s
Encoded date : UTC 2020-05-23 13:42:16
Writing application : v44.0.0 ('Domino') 64-bit
Writing library : libebml v1.3.10 + v1.5.2
Attachments : poster.jpg

Video
ID : 1
Format : AVC
Format/Info : Advanced Video Codec
Format profile : [email protected]
Format settings : CABAC / 3 Ref Frames
Format settings, CABAC : Yes
Format settings, Reference fra : 3 frames
Codec ID : V_MPEG4/ISO/AVC
Duration : 1 h 16 min
Bit rate : 4 000 kb/s
Width : 1 920 pixels
Height : 1 080 pixels
Display aspect ratio : 16:9
Frame rate mode : Constant
Frame rate : 25.000 FPS
Color space : YUV
Chroma subsampling : 4:2:0
Bit depth : 8 bits
Scan type : Progressive
Bits/(Pixel*Frame) : 0.077
Stream size : 2.14 GiB (91%)
Writing library : core 142 r2389 956c8d8
Encoding settings : cabac=1 / ref=3 / deblock=1:0:0 / analyse=0x3:0x133 / me=umh / subme=7 / psy=1 / psy_rd=1.00:0.00 / mixed_ref=1 / me_range=32 / chroma_me=1 / trellis=2 / 8x8dct=1 / cqm=0 / deadzone=21,11 / fast_pskip=1 / chroma_qp_offset=-2 / threads=6 / lookahead_threads=1 / sliced_threads=0 / nr=0 / decimate=1 / interlaced=0 / bluray_compat=0 / constrained_intra=0 / bframes=0 / weightp=0 / keyint=75 / keyint_min=26 / scenecut=40 / intra_refresh=0 / rc_lookahead=50 / rc=2pass / mbtree=0 / bitrate=4000 / ratetol=1.0 / qcomp=0.20 / qpmin=10 / qpmax=51 / qpstep=4 / cplxblur=20.0 / qblur=0.5 / vbv_maxrate=5000 / vbv_bufsize=5000 / nal_hrd=none / filler=0 / ip_ratio=1.40 / aq=1:1.00
Language : English
Default : Yes
Forced : No
Color range : Limited
Color primaries : BT.709
Transfer characteristics : BT.709
Matrix coefficients : BT.709

Audio #1
ID : 2
Format : AC-3
Format/Info : Audio Coding 3
Commercial name : Dolby Digital
Codec ID : A_AC3
Duration : 1 h 16 min
Bit rate mode : Constant
Bit rate : 192 kb/s
Channel(s) : 2 channels
Channel layout : L R
Sampling rate : 48.0 kHz
Frame rate : 31.250 FPS (1536 SPF)
Compression mode : Lossy
Stream size : 105 MiB (4%)
Title : MVO - K1
Language : Ukrainian
Service kind : Complete Main
Default : Yes
Forced : No

Audio #2
ID : 3
Format : LC
Format/Info : Advanced Audio Codec Low Complexity
Codec ID : A_AAC-2
Duration : 1 h 16 min
Bit rate : 192 kb/s
Channel(s) : 2 channels
Channel layout : L R
Sampling rate : 44.1 kHz
Frame rate : 43.066 FPS (1024 SPF)
Compression mode : Lossy
Stream size : 105 MiB (4%)
Language : English
Default : No
Forced : No
Скріншоти







Джерело:


 Трекер:    Зареєстрований   

Завантажити / скачати фільм українською



відео для новачків



 Зареєстрований:   2020-05-23 16:47
 Розмір:   2.34 GB 
 Оцінка фільму:   10/10 (Голосів: 3)
   
Інші релізи
   Арло: Балакуче порося / Arlo: The Burping Pig (2016) Arsenfpu  4 / 0   1.35 GB   2020-05-24 13:46 
Ваш часовий пояс: GMT + 2 Години

Нова тема   Відповісти