В бідності і в багатстві / For Richer or Poorer (1997) 1080p [Open Matte] Ukr/Eng | Sub Eng

Нові коментарі

Нова тема   Відповісти
Останній раз роздавалося drop_plz (2020-06-01)
Автор Повідомлення
Anonymous 







2020-05-23 15:21  
В бідності і в багатстві / For Richer or Poorer (1997) 1080p [Open Matte] Ukr/Eng | Sub Eng

В бідності і в багатстві / For Richer or Poorer (1997) 1080p [Open Matte] Ukr/Eng | Sub Eng


Жанр: комедія
Країна: США



Кінокомпанія: Universal Pictures, Bubble Factory, The, Sheinberg Productions
Режисер: Брайан Спайсер (Bryan Spicer)
Актори: Тім Аллен (Tim Allen), Керсті Еллі (Kirstie Alley), Джей О. Сендерс (Jay O. Sanders), Майкл Лернер (Michael Lerner)

Сюжет:
Бред і Керолін - подружня пара, яка живе в престижному районі Нью - Йорку. Одного разу махінації бухгалтера сім'ї призводять до того, що подружжя виявляється винним податковим органам більше трьох мільйонів доларів.

Бред і Керолін вирішують зникнути з міста і знаходять притулок на фермі у своїх далеких родичів в Пенсильванії.

Подружжя змушене жити простим сільським життям і в результаті розуміють, що гроші не найголовніша річ в житті.


Тривалість: 01:55:27
Якість: 1080p [Open Matte]
Відео:
кодек:
розмір кадру: 1920х1080
бітрейт: 9827 кб/с

Аудіо # 1:
мова: українська
переклад: багатоголосий закадровий
кодек: 2.0 (з 5.1)
бітрейт: 192 кб/с

Аудіо # 2:
мова: англійська
переклад: оригінал
кодек: E-AC-3 5.1
бітрейт: 640 кб/с

Субтитри:
мова: англійська
тип: програмні (м'які)
формат: *.srt
Info
General
Unique ID : 222561542184136930673922225141941420832 (0xA76FCB3A27FCE52B99CB2EC0FB7E4320)
Complete name : E:\Toloka\2020\For Richer or Poorer (1997) 1080p [Open Matte].
Format :
Format version : Version 4
File size : 8.77 GiB
Duration : 1 h 55 min
Overall bit rate mode : Variable
Overall bit rate : 10.9 Mb/s
Encoded date : UTC 2020-05-23 12:11:49
Writing application : v6.1.0 ('Old Devil') built on Mar 4 2013 09:10:42
Writing library : libebml v1.3.0 + v1.4.0

Video
ID : 1
Format : AVC
Format/Info : Advanced Video Codec
Format profile : [email protected]
Format settings : CABAC / 4 Ref Frames
Format settings, CABAC : Yes
Format settings, RefFrames : 4 frames
Codec ID : V_MPEG4/ISO/AVC
Duration : 1 h 55 min
Bit rate mode : Variable
Bit rate : 9 827 kb/s
Maximum bit rate : 15.0 Mb/s
Width : 1 920 pixels
Height : 1 080 pixels
Display aspect ratio : 16:9
Frame rate mode : Constant
Frame rate : 23.976 (24000/1001) FPS
Color space : YUV
Chroma subsampling : 4:2:0
Bit depth : 8 bits
Scan type : Progressive
Bits/(Pixel*Frame) : 0.198
Stream size : 7.93 GiB (90%)
Default : Yes
Forced : No
Color range : Limited
Color primaries : BT.709
Transfer characteristics : BT.709
Matrix coefficients : BT.709

Audio #1
ID : 2
Format : AC-3
Format/Info : Audio Coding 3
Commercial name : Dolby Digital
Codec ID : A_AC3
Duration : 1 h 55 min
Bit rate mode : Constant
Bit rate : 192 kb/s
Channel(s) : 2 channels
Channel layout : L R
Sampling rate : 48.0 kHz
Frame rate : 31.250 FPS (1536 SPF)
Bit depth : 16 bits
Compression mode : Lossy
Stream size : 159 MiB (2%)
Title : UKR (Новий)
Language : Ukrainian
Service kind : Complete Main
Default : Yes
Forced : Yes

Audio #2
ID : 3
Format : E-AC-3
Format/Info : Enhanced AC-3
Commercial name : Dolby Digital Plus
Codec ID : A_EAC3
Duration : 1 h 55 min
Bit rate mode : Constant
Bit rate : 640 kb/s
Channel(s) : 6 channels
Channel layout : L R C LFE Ls Rs
Sampling rate : 48.0 kHz
Frame rate : 31.250 FPS (1536 SPF)
Compression mode : Lossy
Stream size : 529 MiB (6%)
Title : ENG
Language : English
Service kind : Complete Main
Default : No
Forced : No

Text
ID : 4
Format : UTF-8
Codec ID : S_TEXT/UTF8
Codec ID/Info : UTF-8 Plain Text
Title : ENG SDH
Language : English
Default : No
Forced : No
Скріншоти







За доріжку подяка п.: dvorsky, urij546724
Особиста подяка пану denixx за надану матеріальну допомогу на підтримку цього і майбутніх релізів.
Джерело:


Срібний реліз (на рейтинг впливає 50% завантаженого)
 Трекер:    Зареєстрований   

Завантажити / скачати фільм українською



відео для новачків



 Зареєстрований:   2020-05-23 15:21
 Розмір:   8.77 GB 
 Оцінка фільму:   10/10 (Голосів: 6)
   
Ваш часовий пояс: GMT + 2 Години

Нова тема   Відповісти