47 Ронін / 47 Ronin (2013) 1080p H.265 3xUkr/Eng | Sub Eng

Нові коментарі

Нова тема   Відповісти
Автор Повідомлення
Anonymous 







2020-05-22 19:29  
47 Ронін / 47 Ronin (2013) 1080p H.265 3xUkr/Eng | Sub Eng

47 Ронін / 47 Ronin (2013) 1080p H.265 3xUkr/Eng | Sub Eng


Жанр: екшн, пригодницький, фентезі
Країна: США
Кінокомпанія: H2F Entertainment, Mid Atlantic Films, Moving Picture Company (MPC)
Режисер: Карл Рінч / Carl Rinsch
Актори: Кіану Рівз / Keanu Reeves, Хіроюкі Санада / Hiroyuki Sanada, Ко Шибасакі / Kou Shibasaki, Таданобу Асано / Tadanobu Asano, Мін Танака / Min Tanaka, Джин Аканіші / Jin Akanishi, Масаесі Ханеда / Masayoshi Haneda та інші

Сюжет:
Самурай, який не зумів зберегти життя свого господаря, перетворюється на роніна. І помста стає головною метою його життя. Війна, яку він веде, може тривати роками, але це гідна ціна за встановлення справедливості та відродження честі.

Тривалість: 01:58:35
Якість:

Відео:
кодек: H.265 (HEVC)
розмір кадру: 1920 x 800
бітрейт: 7 856 кб/с
бітова глибина: 10 біт

Увага! Перед завантаженням переконайтесь, що ваш пристрій відтворення (та/або ПЗ) підтримує H.265 (HEVC)

Аудіо # 1:
мова: українська
переклад: багатоголосий закадровий
кодек: AC-3 2.0
бітрейт: 192 кб/с

Аудіо # 2:
мова: українська
переклад: багатоголосий закадровий ,
кодек: AC-3 2.0
бітрейт: 192 кб/с

Аудіо # 3:
мова: українська
переклад: професійний дубльований | MIC
кодек: AC-3 2.0
бітрейт: 192 кб/с

Аудіо # 4:
мова: англійська
переклад: оригінал
кодек: 5.1
бітрейт: 1510 кб/с

Субтитри # 1: (Full from iTunes)
мова: українська
тип: програмні (м'які)
формат: *.srt

Субтитри # 2-5: (Full, SDH, SDH, iTunes, SDH-Colored)
мова: англійська
тип: програмні (м'які)
формат: *.srt


Info
Код:
General
Unique ID                                : 167011503087596050717667344451979031391 (0x7DA53ED820C792F64CBA5A1F055DB35F)
Complete name                            : 47 Ronin (2013) 1080p H.265 [3xUKR_ENG] [Hurtom].
Format                                   :
Format version                           : Version 4
File size                                : 8.24 GiB
Duration                                 : 1 h 58 min
Overall bit rate                         : 9 936 kb/s
Movie name                               : 47 Ронін / 47 Ronin (2013)
Encoded date                             : UTC 2020-05-21 18:31:03
Writing application                      : v20.0.0 ('I Am The Sun') 64-bit
Writing library                          : libebml v1.3.5 + v1.4.8
Cover                                    : Yes
Attachments                              : Cover.jpg

Video
ID                                       : 1
Format                                   : HEVC
Format/Info                              : High Efficiency Video Coding
Format profile                           : Main [email protected]@High
Codec ID                                 : V_MPEGH/ISO/HEVC
Duration                                 : 1 h 58 min
Bit rate                                 : 7 856 kb/s
Width                                    : 1 920 pixels
Height                                   : 800 pixels
Display aspect ratio                     : 2.40:1
Frame rate mode                          : Constant
Frame rate                               : 23.976 (24000/1001) FPS
Color space                              : YUV
Chroma subsampling                       : 4:2:0
Bit depth                                : 10 bits
Bits/(Pixel*Frame)                       : 0.213
Stream size                              : 6.51 GiB (79%)
Title                                    : 47 Ронін / 47 Ronin (2013)
Writing library                          : x265 3.1+7-147fb92c5ed5:[Windows][clang 8.0.0][64 bit] 10bit
Encoding settings                        : cpuid=1111039 / frame-threads=13 / wpp / no-pmode / no-pme / no-psnr / no-ssim / log-level=3 / input-csp=1 / input-res=1920x800 / interlace=0 / total-frames=0 / level-idc=41 / high-tier=1 / uhd-bd=0 / ref=5 / allow-non-conformance / no-repeat-headers / annexb / no-aud / no-hrd / info / hash=0 / no-temporal-layers / open-gop / min-keyint=23 / keyint=240 / gop-lookahead=0 / bframes=8 / b-adapt=2 / b-pyramid / bframe-bias=0 / rc-lookahead=60 / lookahead-slices=4 / scenecut=60 / radl=0 / no-splice / no-intra-refresh / ctu=64 / min-cu-size=8 / rect / amp / max-tu-size=32 / tu-inter-depth=4 / tu-intra-depth=4 / limit-tu=4 / rdoq-level=2 / dynamic-rd=0.00 / no-ssim-rd / signhide / no-tskip / nr-intra=0 / nr-inter=0 / no-constrained-intra / no-strong-intra-smoothing / max-merge=5 / limit-refs=1 / limit-modes / me=3 / subme=7 / merange=57 / temporal-mvp / no-hme / weightp / weightb / no-analyze-src-pics / deblock=-3:-3 / no-sao / no-sao-non-deblock / rd=6 / no-early-skip / no-rskip / no-fast-intra / no-tskip-fast / no-cu-lossless / b-intra / no-splitrd-skip / rdpenalty=0 / psy-rd=2.00 / psy-rdoq=1.00 / no-rd-refine / no-lossless / cbqpoffs=0 / crqpoffs=0 / rc=crf / crf=19.0 / qcomp=0.70 / qpstep=4 / stats-write=0 / stats-read=0 / vbv-maxrate=50000 / vbv-bufsize=50000 / vbv-init=0.9 / crf-max=30.0 / crf-min=0.0 / ipratio=1.40 / pbratio=1.30 / aq-mode=2 / aq-strength=1.00 / no-cutree / zone-count=0 / no-strict-cbr / qg-size=32 / no-rc-grain / qpmax=69 / qpmin=0 / no-const-vbv / sar=1 / overscan=0 / videoformat=5 / range=0 / colorprim=1 / transfer=1 / colormatrix=1 / chromaloc=0 / display-window=0cll=0,0 / min-luma=0 / max-luma=1023 / log2-max-poc-lsb=8 / vui-timing-info / vui-hrd-info / slices=1 / no-opt-qp-pps / no-opt-ref-list-length-pps / no-multi-pass-opt-rps / scenecut-bias=0.05 / no-opt-cu-delta-qp / no-aq-motion / no-hdr / no-hdr-opt / no-dhdr10-opt / no-idr-recovery-sei / analysis-reuse-level=5 / scale-factor=0 / refine-intra=0 / refine-inter=0 / refine-mv=0 / refine-ctu-distortion=0 / no-limit-sao / ctu-info=0 / no-lowpass-dct / refine-analysis-type=267 / copy-pic=1 / max-ausize-factor=1.0 / no-dynamic-refine / no-single-sei / no-hevc-aq / no-svt / no-field / qp-adaptation-range=1.00
Default                                  : Yes
Forced                                   : No
Color range                              : Limited
Color primaries                          : BT.709
Transfer characteristics                 : BT.709
Matrix coefficients                      : BT.709

Audio #1
ID                                       : 2
Format                                   : AC-3
Format/Info                              : Audio Coding 3
Commercial name                          : Dolby Digital
Codec ID                                 : A_AC3
Duration                                 : 1 h 58 min
Bit rate mode                            : Constant
Bit rate                                 : 192 kb/s
Channel(s)                               : 2 channels
Channel layout                           : L R
Sampling rate                            : 48.0 kHz
Frame rate                               : 31.250 FPS (1536 SPF)
Compression mode                         : Lossy
Stream size                              : 163 MiB (2%)
Title                                    : / 2.0 Ch / 192 kbps / БЗ / Cine+
Language                                 : Ukrainian
Service kind                             : Complete Main
Default                                  : Yes
Forced                                   : Yes

Audio #2
ID                                       : 3
Format                                   : AC-3
Format/Info                              : Audio Coding 3
Commercial name                          : Dolby Digital
Codec ID                                 : A_AC3
Duration                                 : 1 h 58 min
Bit rate mode                            : Constant
Bit rate                                 : 192 kb/s
Channel(s)                               : 2 channels
Channel layout                           : L R
Sampling rate                            : 48.0 kHz
Frame rate                               : 31.250 FPS (1536 SPF)
Compression mode                         : Lossy
Stream size                              : 163 MiB (2%)
Title                                    : / 2.0 Ch / 192 kbps / БЗ / ICTV, Kanal Ukraina
Language                                 : Ukrainian
Service kind                             : Complete Main
Default                                  : No
Forced                                   : No

Audio #3
ID                                       : 4
Format                                   : AC-3
Format/Info                              : Audio Coding 3
Commercial name                          : Dolby Digital
Codec ID                                 : A_AC3
Duration                                 : 1 h 58 min
Bit rate mode                            : Constant
Bit rate                                 : 192 kb/s
Channel(s)                               : 2 channels
Channel layout                           : L R
Sampling rate                            : 48.0 kHz
Frame rate                               : 31.250 FPS (1536 SPF)
Compression mode                         : Lossy
Stream size                              : 163 MiB (2%)
Title                                    : / 2.0 Ch / 192 kbps / ПД / MIC
Language                                 : Ukrainian
Service kind                             : Complete Main
Default                                  : No
Forced                                   : No

Audio #4
ID                                       : 5
Format                                   :
Format/Info                              : Digital Theater Systems
Codec ID                                 : A_DTS
Duration                                 : 1 h 58 min
Bit rate mode                            : Constant
Bit rate                                 : 1 509 kb/s
Channel(s)                               : 6 channels
Channel layout                           : C L R Ls Rs LFE
Sampling rate                            : 48.0 kHz
Frame rate                               : 93.750 FPS (512 SPF)
Bit depth                                : 24 bits
Compression mode                         : Lossy
Delay relative to video                  : 11 ms
Stream size                              : 1.25 GiB (15%)
Title                                    : / 5.1 Ch / 1509 kbps / Original
Language                                 : English
Default                                  : No
Forced                                   : No

Text #1
ID                                       : 6
Format                                   : UTF-8
Codec ID                                 : S_TEXT/UTF8
Codec ID/Info                            : UTF-8 Plain Text
Duration                                 : 1 h 47 min
Bit rate                                 : 41 b/s
Count of elements                        : 668
Stream size                              : 32.6 KiB (0%)
Title                                    : Full from iTunes
Language                                 : Ukrainian
Default                                  : Yes
Forced                                   : No

Text #2
ID                                       : 7
Format                                   : UTF-8
Codec ID                                 : S_TEXT/UTF8
Codec ID/Info                            : UTF-8 Plain Text
Duration                                 : 1 h 47 min
Bit rate                                 : 23 b/s
Count of elements                        : 680
Stream size                              : 18.6 KiB (0%)
Title                                    : Full
Language                                 : English
Default                                  : No
Forced                                   : No

Text #3
ID                                       : 8
Format                                   : UTF-8
Codec ID                                 : S_TEXT/UTF8
Codec ID/Info                            : UTF-8 Plain Text
Duration                                 : 1 h 47 min
Bit rate                                 : 25 b/s
Count of elements                        : 742
Stream size                              : 19.8 KiB (0%)
Title                                    : SDH
Language                                 : English
Default                                  : No
Forced                                   : No

Text #4
ID                                       : 9
Format                                   : UTF-8
Codec ID                                 : S_TEXT/UTF8
Codec ID/Info                            : UTF-8 Plain Text
Duration                                 : 1 h 47 min
Bit rate                                 : 24 b/s
Count of elements                        : 741
Stream size                              : 19.7 KiB (0%)
Title                                    : SDH, iTunes
Language                                 : English
Default                                  : No
Forced                                   : No

Text #5
ID                                       : 10
Format                                   : UTF-8
Codec ID                                 : S_TEXT/UTF8
Codec ID/Info                            : UTF-8 Plain Text
Duration                                 : 1 h 47 min
Bit rate                                 : 29 b/s
Count of elements                        : 742
Stream size                              : 23.0 KiB (0%)
Title                                    : SDH-Colored
Language                                 : English
Default                                  : No
Forced                                   : No

Menu
00:00:00.000                             : :Chapter 01
00:04:27.558                             : :Chapter 02
00:11:12.088                             : :Chapter 03
00:16:27.820                             : :Chapter 04
00:20:11.835                             : :Chapter 05
00:26:52.319                             : :Chapter 06
00:31:02.944                             : :Chapter 07
00:36:10.626                             : :Chapter 08
00:43:36.614                             : :Chapter 09
00:50:14.511                             : :Chapter 10
00:54:59.421                             : :Chapter 11
00:59:54.048                             : :Chapter 12
01:09:57.735                             : :Chapter 13
01:13:59.017                             : :Chapter 14
01:19:12.247                             : :Chapter 15
01:24:17.385                             : :Chapter 16
01:33:00.825                             : :Chapter 17
01:38:55.554                             : :Chapter 18
01:44:41.608                             : :Chapter 19
01:48:38.303                             : :Chapter 20
01:58:42.949                             : :Chapter 21
Світлини




Джерело: &
Особиста оцінка: 10 - без зайвих вагань рекомендую всім!


 Трекер:    Зареєстрований   

Завантажити / скачати фільм українською



відео для новачків



 Зареєстрований:   2020-05-22 19:29
 Розмір:   8.24 GB 
 Оцінка фільму:   9.4/10 (Голосів: 5)
   
Інші релізи
   47 Ронін / 47 Ronin (2013) 720p 3хUkr/Eng | Sub Ukr/Eng 11FrYkT  2 / 0   3.9 GB   2019-02-10 13:33 
   47 Ронін / 47 Ronin (2013) 1080p 3хUkr/Eng | Sub Ukr/Eng 11FrYkT  5 / 0   7.71 GB   2019-02-09 18:26 
   47 Ронін / 47 Ronin (2013) AVC 3xUkr/Eng | Sub Eng drop_plz  3 / 0   3.01 GB   2018-10-12 14:23 
   47 Ронінів / 47 Ронін / 47 Ronin (2013) 2хUkr/Eng Electroz  4 / 0   2.12 GB   2016-12-27 14:43 
   47 Ронін / 47 Ronin (2013) 1080p 3D [HalfOverUnder] Ukr(MIC)/Eng | Sub Ukr/Eng RushPill  0 / 0   8.95 GB   2016-11-13 21:24 
   47 Ронін / 47 Ronin (2013) | Mic patriot2305  1 / 0   1.45 GB   2014-04-10 05:38 
Ваш часовий пояс: GMT + 2 Години

Нова тема   Відповісти