Ґарфілд 2 (Гарфілд 2) / Garfield: A Tail of Two Kitties (2006) Remux 1080p Ukr/Eng | Sub Ukr/Eng

Нові коментарі

Нова тема   Відповісти
Автор Повідомлення
sandman 
VIP


З нами з: 12.08.12
Востаннє: 01.06.20
Повідомлень: 330

2020-05-22 18:53  
Ґарфілд 2 (Гарфілд 2) / Garfield: A Tail of Two Kitties (2006) Remux 1080p Ukr/Eng | Sub Ukr/Eng

Ґарфілд 2 (Гарфілд 2) / Garfield: A Tail of Two Kitties (2006) Remux 1080p Ukr/Eng | Sub Ukr/Eng


Жанр: Комедія, сімейний
Країна: Велика Британія, США



Кінокомпанія: Twentieth Century Fox Film Corporation, Davis Entertainment, Dune Entertainment
Режисер: Тім Гілл (Tim Hill)
Актори: Брекін Меєр (Breckin Meyer), Дженніфер Лав Г’юіт (Jennifer Love Hewitt), Біллі Конноллі (Billy Connolly), Біл Мюррей (Bill Murray), Ян Аберкромбі (Ian Abercrombie), Роджер Різ (Roger Rees), Люсі Девіс (Lucy Davis), Ліна Кардвелл (Lena Cardwell), Вероніка Альчіно (Veronica Alicino), Джейн Карр (Jane Carr), Олівер Мюрхед (Oliver Muirhead), ДжейБі Бланк (JB Blanc), Верні Ватсон-Джонсон (Vernee Watson-Johnson), Рассел Мілтон (Russell Milton), Бен Фалконе (Ben Falcone)

Сюжет:
Один добре, а два краще! Ґарфілд їде зі своїм господарем до Англії, де його помилково приймають за іншого. Той кіт був благородної крові, і Ґарфілд успадковує цілий замок. Про таке життя було лише мріяти! Проте його безтурботне існування може закінчитися в однин момент, оскільки якийсь Лорд Даргіс хоче позбавитися від нашого героя, щоб перетворити замок на парк розваг.


Тривалість: 01:25:48
Якість: Remux
Відео:
кодек: AVC
розмір кадру: 1920 х 1080
бітрейт: 27.9 Mb/s

Аудіо # 1:
мова: українська
переклад: професійний дубльований
кодек: 5.1
бітрейт: 448 кб/с
Ролі озвучили:
Андрій Бурлуцький, Максим Кондратюк, Дмитро Завадський, Юлія Перенчук, Олександр Завальський, Олег Лепенець, Юрій Коваленко, Андрій Твердак, Олесь Гімбаржевський, Олена Яблучна, Анатолій Зіновенко, Михайло Жонін, Людмила Ардельян, Ніна Касторф, Юрій Кудрявець, Наталя Ярошенко та інші.
Аудіо # 2:
мова: англійська
переклад: оригінал
кодек: -HD MA 5.1
бітрейт: 3 852 кб/с

Субтитри # 1:
мова: українська (форсовані, до місць без перекладу)
тип: програмні (м'які)
формат: *.srt

Субтитри # 2:
мова: англійська (Full)
тип: програмні (м'які)
формат: *.PGS
Info
General
Unique ID : 9694681938382624159955226115836289068 (0x74B20B91DAA1CDD6ED8A38B8DB5202C)
Complete name : /Volumes/MMEDIA/MOVIES/Garfield A Tail Of Two Kitties (2006) BDRMX1080p.
Format :
Format version : Version 4
File size : 19.3 GiB
Duration : 1 h 25 min
Overall bit rate mode : Variable
Overall bit rate : 32.2 Mb/s
Movie name : Garfield: A Tail of Two Kitties
Encoded date : UTC 2019-11-12 16:25:00
Writing application : v40.0.0 ('Old Town Road + Pony') 64-bit
Writing library : libebml v1.3.9 + v1.5.2
Cover : Yes
Attachments : cover.jpg

Video
ID : 1
Format : AVC
Format/Info : Advanced Video Codec
Format profile : [email protected]
Format settings : CABAC / 4 Ref Frames
Format settings, CABAC : Yes
Format settings, Reference frames : 4 frames
Codec ID : V_MPEG4/ISO/AVC
Duration : 1 h 25 min
Bit rate mode : Variable
Bit rate : 27.9 Mb/s
Maximum bit rate : 30.2 Mb/s
Width : 1 920 pixels
Height : 1 080 pixels
Display aspect ratio : 16:9
Frame rate mode : Constant
Frame rate : 23.976 (24000/1001) FPS
Color space : YUV
Chroma subsampling : 4:2:0
Bit depth : 8 bits
Scan type : Progressive
Bits/(Pixel*Frame) : 0.561
Stream size : 16.7 GiB (87%)
Default : Yes
Forced : No
Color range : Limited
Color primaries : BT.709
Transfer characteristics : BT.709
Matrix coefficients : BT.709

Audio #1
ID : 2
Format : AC-3
Format/Info : Audio Coding 3
Commercial name : Dolby Digital
Codec ID : A_AC3
Duration : 1 h 25 min
Bit rate mode : Constant
Bit rate : 448 kb/s
Channel(s) : 6 channels
Channel layout : L R C LFE Ls Rs
Sampling rate : 48.0 kHz
Frame rate : 31.250 FPS (1536 SPF)
Compression mode : Lossy
Stream size : 275 MiB (1%)
Title : DUB [email protected]
Language : Ukrainian
Service kind : Complete Main
Default : Yes
Forced : No

Audio #2
ID : 3
Format : XLL
Format/Info : Digital Theater Systems
Commercial name : -HD Master Audio
Codec ID : A_DTS
Duration : 1 h 25 min
Bit rate mode : Variable
Bit rate : 3 852 kb/s
Channel(s) : 6 channels
Channel layout : C L R Ls Rs LFE
Sampling rate : 48.0 kHz
Frame rate : 93.750 FPS (512 SPF)
Bit depth : 24 bits
Compression mode : Lossless
Stream size : 2.31 GiB (12%)
Title : Original -HD MA [email protected] 3852
Language : English
Default : No
Forced : No

Text #1
ID : 4
Format : UTF-8
Codec ID : S_TEXT/UTF8
Codec ID/Info : UTF-8 Plain Text
Duration : 1 h 1 min
Bit rate : 11 b/s
Count of elements : 88
Stream size : 5.04 KiB (0%)
Title : Forced
Language : Ukrainian
Default : Yes
Forced : Yes

Text #2
ID : 5
Format : PGS
Muxing mode : zlib
Codec ID : S_HDMV/PGS
Codec ID/Info : Picture based subtitle format used on BDs/HD-DVDs
Duration : 1 h 23 min
Bit rate : 43.0 kb/s
Count of elements : 2222
Stream size : 25.8 MiB (0%)
Title : Full
Language : English
Default : No
Forced : No

Menu
00:00:00.000 : en:Chapter 01
00:01:48.316 : en:Chapter 02
00:05:17.775 : en:Chapter 03
00:07:30.116 : en:Chapter 04
00:09:31.779 : en:Chapter 05
00:14:16.355 : en:Chapter 06
00:15:24.506 : en:Chapter 07
00:18:15.344 : en:Chapter 08
00:21:58.483 : en:Chapter 09
00:24:16.538 : en:Chapter 10
00:27:01.995 : en:Chapter 11
00:29:13.251 : en:Chapter 12
00:33:17.745 : en:Chapter 13
00:35:47.895 : en:Chapter 14
00:36:57.048 : en:Chapter 15
00:39:45.216 : en:Chapter 16
00:41:31.614 : en:Chapter 17
00:44:31.293 : en:Chapter 18
00:50:15.595 : en:Chapter 19
00:52:26.726 : en:Chapter 20
00:57:34.284 : en:Chapter 21
00:59:48.001 : en:Chapter 22
01:03:53.079 : en:Chapter 23
01:04:59.353 : en:Chapter 24
01:07:43.350 : en:Chapter 25
01:15:09.838 : en:Chapter 26
01:18:39.089 : en:Chapter 27
01:20:23.652 : en:Chapter 28
Скріншоти







Збережено розділи, як на Blu-Ray

Джерело: &


Золотий реліз (завантажене не впливає на рейтинг)
 Трекер:    Зареєстрований   

Завантажити / скачати фільм українською



відео для новачків



 Зареєстрований:   2020-05-22 19:16
 Розмір:   19.29 GB 
 Оцінка фільму:   10/10 (Голосів: 2)
   
Інші релізи
sandman 
VIP


З нами з: 12.08.12
Востаннє: 01.06.20
Повідомлень: 330

2020-05-22 19:44  
Модератори, вибачте - промахнувся розділом. Перенесіть, будь ласка, у фільми.
bot 
робот


З нами з: 30.09.07
Востаннє: 26.05.05
Повідомлень: 24608

2020-05-23 17:18  
Тему перенесено з Мультфільми в HD до форуму Фільми в HD


kino.

Ваш часовий пояс: GMT + 2 Години

Нова тема   Відповісти