Ґарфілд (Гарфілд) Garfield (2004) Remux 1080p Ukr/Eng | Sub Eng

Нові коментарі

Нова тема   Відповісти
Автор Повідомлення
sandman 
VIP


З нами з: 12.08.12
Востаннє: 01.06.20
Повідомлень: 330

2020-05-22 18:52  
Ґарфілд (Гарфілд) Garfield (2004) Remux 1080p Ukr/Eng | Sub Eng

Ґарфілд (Гарфілд) Garfield (2004) Remux 1080p Ukr/Eng | Sub Eng


Жанр: Комедія, сімейний
Країна: США



Кінокомпанія: Twentieth Century Fox Film Corporation, Davis Entertainment
Режисер: Пітер Г’юіт (Peter Hewitt)
Актори: Брекін Меєр (Breckin Meyer), Дженніфер Лав Г’юіт (Jennifer Love Hewitt), Стівен Тоболовські (Stephen Tobolowsky), Біл Мюррей (Bill Murray), Еван Арнольд (Evan Arnold), Марк Крістофер Лоуренс (Mark Christopher Lawrence), Ванесса Крістелль (Vanessa Christelle), Дааман Дж Кралл (Daamen J. Krall), Руфус Гіффорд (Rufus Gifford), Ренді Райхер (Randee Reicher), Раян МакКассон (Ryan McKasson), Сьюзен Мур (Susan Moore), Ів Брент (Eve Brent), Білл Гоаг (Bill Hoag), Майкл Монкс (Michael Monks)

Сюжет:
Він цинічний, ледачий і взагалі, він - жирний котяра. Господар цього котика, Джон, приносить в будинок миле щеня Оді, і з цієї миті життя Ґарфілда йде наперекосяк. Він хоче тільки одного - щоб пес зник з його життя і з його будинку назавжди! Але коли раптово щеня викрадають, Ґарфілд, можливо вперше в житті, відчуває відповідальність, що лежить на ньому. І він починає діяти...


Тривалість: 01:20:12
Якість: Remux
Відео:
кодек: AVC
розмір кадру: 1920 х 1080
бітрейт: 28.5 Mb/s

Аудіо # 1:
мова: українська
переклад: багатоголосий закадровий
кодек: 5.1
бітрейт: 384 кб/с
Ролі озвучили:
Юрій Ребрик, Володимир Голосняк і один жіночий
Аудіо # 2:
мова: англійська
переклад: оригінал
кодек: -HD MA 5.1
бітрейт: 4 294 кб/с

Аудіо # 3:
мова: англійська
переклад: коментарі
кодек: 2.0
бітрейт: 224 кб/с

Субтитри:
мова: англійська (Full)
тип: програмні (м'які)
формат: *.PGS
Info
General
Unique ID : 318978390103408400725211615369722748312 (0xEFF900D901B3FB4ADAAEC72F158A5D98)
Complete name : /Volumes/MMEDIA/MOVIES/Garfield (2004) BDRMX1080p.
Format :
Format version : Version 4
File size : 18.7 GiB
Duration : 1 h 20 min
Overall bit rate mode : Variable
Overall bit rate : 33.4 Mb/s
Movie name : Garfield: The Movie
Encoded date : UTC 2020-05-22 11:06:05
Writing application : v46.0.0 ('No Deeper Escape') 64-bit
Writing library : libebml v1.3.10 + v1.5.2
Cover : Yes
Attachments : cover.jpg

Video
ID : 1
Format : AVC
Format/Info : Advanced Video Codec
Format profile : [email protected]
Format settings : CABAC / 4 Ref Frames
Format settings, CABAC : Yes
Format settings, Reference frames : 4 frames
Codec ID : V_MPEG4/ISO/AVC
Duration : 1 h 20 min
Bit rate mode : Variable
Bit rate : 28.5 Mb/s
Maximum bit rate : 29.7 Mb/s
Width : 1 920 pixels
Height : 1 080 pixels
Display aspect ratio : 16:9
Frame rate mode : Constant
Frame rate : 23.976 (24000/1001) FPS
Color space : YUV
Chroma subsampling : 4:2:0
Bit depth : 8 bits
Scan type : Progressive
Bits/(Pixel*Frame) : 0.572
Stream size : 15.9 GiB (85%)
Default : Yes
Forced : No
Color range : Limited
Color primaries : BT.709
Transfer characteristics : BT.709
Matrix coefficients : BT.709

Audio #1
ID : 2
Format : AC-3
Format/Info : Audio Coding 3
Commercial name : Dolby Digital
Codec ID : A_AC3
Duration : 1 h 20 min
Bit rate mode : Constant
Bit rate : 384 kb/s
Channel(s) : 6 channels
Channel layout : L R C LFE Ls Rs
Sampling rate : 48.0 kHz
Frame rate : 31.250 FPS (1536 SPF)
Compression mode : Lossy
Stream size : 220 MiB (1%)
Title : MVO [email protected]
Language : Ukrainian
Service kind : Complete Main
Default : Yes
Forced : No

Audio #2
ID : 3
Format : XLL
Format/Info : Digital Theater Systems
Commercial name : -HD Master Audio
Codec ID : A_DTS
Duration : 1 h 20 min
Bit rate mode : Variable
Bit rate : 4 294 kb/s
Channel(s) : 6 channels
Channel layout : C L R Ls Rs LFE
Sampling rate : 48.0 kHz
Frame rate : 93.750 FPS (512 SPF)
Bit depth : 24 bits
Compression mode : Lossless
Stream size : 2.41 GiB (13%)
Title : Original -HD MA [email protected]
Language : English
Default : No
Forced : No

Audio #3
ID : 4
Format : AC-3
Format/Info : Audio Coding 3
Commercial name : Dolby Digital
Codec ID : A_AC3
Duration : 1 h 20 min
Bit rate mode : Constant
Bit rate : 224 kb/s
Channel(s) : 2 channels
Channel layout : L R
Sampling rate : 48.0 kHz
Frame rate : 31.250 FPS (1536 SPF)
Compression mode : Lossy
Stream size : 129 MiB (1%)
Title : Commentary
Language : English
Service kind : Complete Main
Default : No
Forced : No

Text
ID : 5
Format : PGS
Muxing mode : zlib
Codec ID : S_HDMV/PGS
Codec ID/Info : Picture based subtitle format used on BDs/HD-DVDs
Duration : 1 h 18 min
Bit rate : 42.3 kb/s
Count of elements : 2017
Stream size : 23.7 MiB (0%)
Title : Full
Language : English
Default : No
Forced : No

Menu
00:00:00.000 : en:Chapter 01
00:01:50.735 : en:Chapter 02
00:03:59.197 : en:Chapter 03
00:06:37.855 : en:Chapter 04
00:08:32.970 : en:Chapter 05
00:10:27.418 : en:Chapter 06
00:12:19.447 : en:Chapter 07
00:14:53.726 : en:Chapter 08
00:18:55.801 : en:Chapter 09
00:20:52.334 : en:Chapter 10
00:23:36.540 : en:Chapter 11
00:25:02.459 : en:Chapter 12
00:28:07.018 : en:Chapter 13
00:30:05.637 : en:Chapter 14
00:31:35.476 : en:Chapter 15
00:33:26.170 : en:Chapter 16
00:42:21.330 : en:Chapter 17
00:45:54.168 : en:Chapter 18
00:50:17.139 : en:Chapter 19
00:52:41.283 : en:Chapter 20
00:57:31.114 : en:Chapter 21
01:00:40.428 : en:Chapter 22
01:02:11.853 : en:Chapter 23
01:05:43.397 : en:Chapter 24
01:06:18.933 : en:Chapter 25
01:07:51.233 : en:Chapter 26
01:11:17.982 : en:Chapter 27
01:13:24.191 : en:Chapter 28
Скріншоти





Збережено розділи, як на Blu-Ray

Джерело: &


Золотий реліз (завантажене не впливає на рейтинг)
 Трекер:    Зареєстрований   

Завантажити / скачати фільм українською



відео для новачків



 Зареєстрований:   2020-05-22 19:13
 Розмір:   18.7 GB 
 Оцінка фільму:   10/10 (Голосів: 2)
   
sandman 
VIP


З нами з: 12.08.12
Востаннє: 01.06.20
Повідомлень: 330

2020-05-22 20:52  
Модератори, вибачте - промахнувся розділом. Перенесіть, будь ласка, у фільми.
bot 
робот


З нами з: 30.09.07
Востаннє: 26.05.05
Повідомлень: 24608

2020-05-23 17:17  
Тему перенесено з Мультфільми в HD до форуму Фільми в HD


kino.

Ваш часовий пояс: GMT + 2 Години

Нова тема   Відповісти