Автокатастрофа / Crash (1996) 1080p Ukr/Eng | Sub Eng

Нові коментарі

Нова тема   Відповісти
Автор Повідомлення
Anonymous 







2020-05-22 11:30  
Автокатастрофа / Crash (1996) 1080p Ukr/Eng | Sub Eng

Автокатастрофа / Crash (1996) 1080p Ukr/Eng | Sub Eng


Увага: особам молодше 18 років перегляд не рекомендований!

Жанр: трилер, драма, еротика
Країна: Канада, Велика Британія



Кінокомпанія: The Movie Network
Режисер: Девід Кроненберг
Актори: Джеймс Спейдер, Холлі Хантер, Еліас Котеас, Дебора Кара Ангер, Розанна Аркетт, Пітер МакНейл, Йоланда Джуліан, Шеріл Свартс, Джуда Кац, Ніккі Гуаданьї

Сюжет:
Продюсер Джеймс Баллард і його дружина Кетрін - шукачі еротичних пригод. В обох є і інша пристрасть - автомобілі. Одного разу Джеймс потрапляє в страшну аварію. У клініці він знайомиться з жертвою цієї аварії Хелен і її приятелем Воном.
Так починається освоєння Джеймсом і Кетрін нових відчуттів: сексуального збудження від побитих автівок і травмованих тел.


Тривалість: 01:39:49
Якість: 1080p
Відео:
кодек:
розмір кадру: 1800x1080
бітрейт: 10200 кб/с

Аудіо # 1:
мова: українська
переклад: багатоголосий закадровий
кодек: 2.0 (з 5.1)
бітрейт: 192 кб/с

Аудіо # 2:
мова: англійська
переклад: оригінал
кодек: 5.1
бітрейт: 1509 кб/с

Субтитри:
мова: англійська
тип: програмні (м'які)
формат: *.srt
Info
General
Unique ID : 249846932305517487299582548194218116336 (0xBBF6C4D2F6ACCB4E957BF6A1961684F0)
Complete name : E:\Toloka\2020\Crash (1996) 1080p.
Format :
Format version : Version 4
File size : 8.30 GiB
Duration : 1 h 39 min
Overall bit rate : 11.9 Mb/s
Encoded date : UTC 2020-05-22 08:07:40
Writing application : v6.1.0 ('Old Devil') built on Mar 4 2013 09:10:42
Writing library : libebml v1.3.0 + v1.4.0

Video
ID : 1
Format : AVC
Format/Info : Advanced Video Codec
Format profile : [email protected]
Format settings : CABAC / 5 Ref Frames
Format settings, CABAC : Yes
Format settings, RefFrames : 5 frames
Codec ID : V_MPEG4/ISO/AVC
Duration : 1 h 39 min
Bit rate : 10.2 Mb/s
Width : 1 800 pixels
Height : 1 080 pixels
Display aspect ratio : 5:3
Frame rate mode : Constant
Frame rate : 23.976 (24000/1001) FPS
Color space : YUV
Chroma subsampling : 4:2:0
Bit depth : 8 bits
Scan type : Progressive
Bits/(Pixel*Frame) : 0.219
Stream size : 6.95 GiB (84%)
Writing library : core 160 r3000+53 e3e4c3e t_mod_New [(8 & 10)[email protected] X86_64]
Encoding settings : cabac=1 / ref=5 / deblock=1:-3:-3 / analyse=0x3:0x133 / me=umh / subme=10 / psy=1 / fade_compensate=0.00 / psy_rd=1.00:0.00 / mixed_ref=1 / me_range=32 / chroma_me=1 / trellis=2 / 8x8dct=1 / cqm=0 / deadzone=21,11 / fast_pskip=0 / chroma_qp_offset=-2 / threads=34 / lookahead_threads=5 / sliced_threads=0 / nr=0 / decimate=0 / interlaced=0 / bluray_compat=0 / constrained_intra=0 / fgo=0 / bframes=8 / b_pyramid=2 / b_adapt=2 / b_bias=0 / direct=3 / weightb=1 / open_gop=0 / weightp=2 / keyint=250 / keyint_min=23 / scenecut=40 / intra_refresh=0 / rc=2pass / mbtree=0 / bitrate=10200 / ratetol=1.0 / qcomp=0.65 / qpmin=0:0:0 / qpmax=69:69:69 / qpstep=4 / cplxblur=20.0 / qblur=0.5 / ip_ratio=1.30 / pb_ratio=1.20 / aq=3:0.85 / aq-sensitivity=10.00 / aq-factor=1.00:1.00:1.00 / aq2=0 / aq3=0
Default : Yes
Forced : No
Color range : Limited
Color primaries : BT.709
Transfer characteristics : BT.709
Matrix coefficients : BT.709
Statistics Tags Issue : v46.0.0 ('No Deeper Escape') 64-bit 2020-05-21 20:19:32 / v6.1.0 ('Old Devil') built on Mar 4 2013 09:10:42 2020-05-22 08:07:40
FromStats_BitRate : 10195865
FromStats_Duration : 01:39:49.400000000
FromStats_FrameCount : 143602
FromStats_StreamSize : 7633389621

Audio #1
ID : 2
Format : AC-3
Format/Info : Audio Coding 3
Commercial name : Dolby Digital
Codec ID : A_AC3
Duration : 1 h 39 min
Bit rate mode : Constant
Bit rate : 192 kb/s
Channel(s) : 2 channels
Channel layout : L R
Sampling rate : 48.0 kHz
Frame rate : 31.250 FPS (1536 SPF)
Bit depth : 16 bits
Compression mode : Lossy
Stream size : 137 MiB (2%)
Title : UKR (ICTV)
Language : Ukrainian
Service kind : Complete Main
Default : Yes
Forced : Yes

Audio #2
ID : 3
Format :
Format/Info : Digital Theater Systems
Codec ID : A_DTS
Duration : 1 h 39 min
Bit rate mode : Constant
Bit rate : 1 509 kb/s
Channel(s) : 6 channels
Channel layout : C L R Ls Rs LFE
Sampling rate : 48.0 kHz
Frame rate : 93.750 FPS (512 SPF)
Bit depth : 24 bits
Compression mode : Lossy
Stream size : 1.05 GiB (13%)
Title : ENG
Language : English
Default : No
Forced : No
Statistics Tags Issue : v46.0.0 ('No Deeper Escape') 64-bit 2020-05-21 20:19:32 / v6.1.0 ('Old Devil') built on Mar 4 2013 09:10:42 2020-05-22 08:07:40
FromStats_BitRate : 1508999
FromStats_Duration : 01:39:49.366000000
FromStats_FrameCount : 561503
FromStats_StreamSize : 1129744036

Text
ID : 4
Format : UTF-8
Codec ID : S_TEXT/UTF8
Codec ID/Info : UTF-8 Plain Text
Title : ENG
Language : English
Default : Yes
Forced : No
Statistics Tags Issue : v46.0.0 ('No Deeper Escape') 64-bit 2020-05-21 20:19:32 / v6.1.0 ('Old Devil') built on Mar 4 2013 09:10:42 2020-05-22 08:07:40
FromStats_BitRate : 21
FromStats_Duration : 01:30:19.660000000
FromStats_FrameCount : 433
FromStats_StreamSize : 14387
Скріншоти









За доріжку подяка п.: urij546724, imonko
Особиста подяка пану denixx за надану матеріальну допомогу на підтримку цього і майбутніх релізів.
Джерело:


Срібний реліз (на рейтинг впливає 50% завантаженого)
 Трекер:    Зареєстрований   

Завантажити / скачати фільм українською



відео для новачків



 Зареєстрований:   2020-05-22 11:30
 Розмір:   8.3 GB 
 Оцінка фільму:   7.6/10 (Голосів: 8)
   
Інші релізи
   Автокатастрофа / Crash (1996) -AVC Ukr/Eng |Sub Eng imonko  3 / 0   1.43 GB   2012-03-30 11:52 
kernpro 
Новенький


З нами з: 10.10.07
Востаннє: 23.09.20
Повідомлень: 7

2020-05-25 12:36  
фільм для збоченців
Ваш часовий пояс: GMT + 2 Години

Нова тема   Відповісти