Рожева пантера. Дилогія / The Pink Panther. Dilogy (2006-2009) AVC 2xUkr/Eng | sub Eng

Нові коментарі

Нова тема   Відповісти
Автор Повідомлення
Arsenfpu 
Відео Гуртом - фільмокрай
Відео Гуртом - фільмокрай


З нами з: 30.04.09
Востаннє: 03.07.20
Повідомлень: 7031

2020-05-22 08:31  
Рожева пантера. Дилогія / The Pink Panther. Dilogy (2006-2009) AVC 2xUkr/Eng | sub Eng

Рожева пантера. Дилогія / The Pink Panther. Dilogy (2006-2009) AVC 2xUkr/Eng | sub Eng
Рожева пантера / The Pink Panther (2006) AVC 2xUkr/Eng | sub Eng

Рожева пантера / The Pink Panther (2006) AVC 2xUkr/Eng | sub Eng

Рожева пантера. Дилогія / The Pink Panther. Dilogy (2006-2009) AVC 2xUkr/Eng | sub Eng


Жанр: пригодницький, комедія
Країна: США, Чехія



Кінокомпанія: Metro-Goldwyn-Mayer (MGM)
Режисер: Шон Леві
Актори: Стів Мартін, Уільям Ебетай, Кевін Кляйн, Бейонсе Ноулз, Жан Рено

Сюжет:
Десятий фільм, присвячений 40-річчю царювання Рожевої пантери на кіноекранах. У новій серії пригод везучий, але страшно некомпетентний французький інспектор Клюзо (Стів Мартін) розслідує вбивство тренера національної команди по футболу, одночасно намагаючись знайти слід зниклого знаменитого діаманта "Рожева пантера", національного надбання пляжу Лугаш.
Рімейк класичної комедії 1963 р. порівнювати з оригіналом важко, оскільки це стрічки різні за стилем і майже жанром. Вони відрізняються так само, як епохи, в які вони були створені.
Старий фільм був типовою для того часу розвагою про хитромудрих і привабливих злочинців і тупуватих, але часом теж симпатичних полісменів (до цієї категорії можна віднести, скажімо «Роззяву» з Бурвілем та Луї Де Фюнесом і багато інших французьких стрічок, деякі з яких йшли і в радянському прокаті). Клузо в ньому навряд чи можна назвати головним героєм: екранного часу у нього не більше, ніж у невловимого злодія Фантома, якого він намагається впіймати. І сказати, що Клузо виходить у фіналі переможцем, було б дуже великим перебільшенням, хоча і на його рахунку є деякі бали.


Тривалість: 01:32:45
Якість:
Відео:
кодек:
розмір кадру: 1 024 х 560
бітрейт: 2 507 кб/с

Аудіо # 1:
мова: українська
переклад: багатоголосий закадровий ,
кодек: 2.0
бітрейт: 192 кб/с

Аудіо # 2:
мова: українська
переклад: багатоголосий закадровий
кодек: 2.0
бітрейт: 192 кб/с

Аудіо # 3:
мова: англійська
переклад: оригінал
кодек: 2.0
бітрейт: 192 кб/с

Субтитри:
мова: англійська
тип: програмні (м'які)
формат: *.srt
Скріншоти














Про файл

General
Unique ID : 78857344414037129141872937231584350900 (0x3B535F4190844EC591096C69558052B4)
Complete name : J:\Фільм_закачка_2\The Pink Panther. Dilogy (2006-2009) [2xUkr,Eng] AVC [Hurtom]\The Pink Panther (2006) [2xUkr,Eng] AVC [Hurtom].
Format :
Format version : Version 4 / Version 2
File size : 2.00 GiB
Duration : 1 h 32 min
Overall bit rate : 3 079 kb/s
Movie name : Рожева пантера / The Pink Panther (2006)
Encoded date : UTC 2020-05-27 18:57:05
Writing application : v21.0.0 ('Tardigrades Will Inherit The Earth') 32-bit
Writing library : libebml v1.3.5 + v1.4.8
Cover : Yes
Attachments : cover.jpg

Video
ID : 1
Format : AVC
Format/Info : Advanced Video Codec
Format profile : [email protected]
Format settings, CABAC : Yes
Format settings, ReFrames : 10 frames
Codec ID : V_MPEG4/ISO/AVC
Duration : 1 h 32 min
Bit rate : 2 507 kb/s
Width : 1 024 pixels
Height : 560 pixels
Display aspect ratio : 1.85:1
Frame rate mode : Constant
Frame rate : 23.976 FPS
Color space : YUV
Chroma subsampling : 4:2:0
Bit depth : 8 bits
Scan type : Progressive
Bits/(Pixel*Frame) : 0.182
Stream size : 1.62 GiB (81%)
Writing library : core 98 r1649 c54c47d
Encoding settings : cabac=1 / ref=10 / deblock=1:-2:-1 / analyse=0x3:0x113 / me=hex / subme=7 / psy=1 / psy_rd=1.00:0.00 / mixed_ref=1 / me_range=16 / chroma_me=1 / trellis=1 / 8x8dct=1 / cqm=0 / deadzone=21,11 / fast_pskip=0 / chroma_qp_offset=-2 / threads=3 / sliced_threads=0 / nr=0 / decimate=1 / interlaced=0 / constrained_intra=0 / bframes=3 / b_pyramid=2 / b_adapt=2 / b_bias=0 / direct=1 / weightb=1 / weightp=2 / keyint=250 / keyint_min=25 / scenecut=40 / intra_refresh=0 / rc_lookahead=30 / rc=2pass / mbtree=1 / bitrate=2507 / ratetol=1.0 / qcomp=0.60 / qpmin=10 / qpmax=51 / qpstep=4 / cplxblur=20.0 / qblur=0.5 / ip_ratio=1.40 / aq=1:1.00
Language : English
Default : No
Forced : No

Audio #1
ID : 2
Format : AC-3
Format/Info : Audio Coding 3
Mode extension : CM (complete main)
Format settings, Endianness : Big
Codec ID : A_AC3
Duration : 1 h 32 min
Bit rate mode : Constant
Bit rate : 192 kb/s
Channel(s) : 2 channels
Channel positions : Front: L R
Sampling rate : 48.0 kHz
Frame rate : 31.250 FPS (1536 spf)
Compression mode : Lossy
Stream size : 127 MiB (6%)
Title : НЛО
Language : Ukrainian
Default : Yes
Forced : Yes

Audio #2
ID : 3
Format : AC-3
Format/Info : Audio Coding 3
Mode extension : CM (complete main)
Format settings, Endianness : Big
Codec ID : A_AC3
Duration : 1 h 32 min
Bit rate mode : Constant
Bit rate : 192 kb/s
Channel(s) : 2 channels
Channel positions : Front: L R
Sampling rate : 48.0 kHz
Frame rate : 31.250 FPS (1536 spf)
Compression mode : Lossy
Stream size : 127 MiB (6%)
Title : Новий
Language : Ukrainian
Default : No
Forced : No

Audio #3
ID : 4
Format : AC-3
Format/Info : Audio Coding 3
Mode extension : CM (complete main)
Format settings, Endianness : Big
Codec ID : A_AC3
Duration : 1 h 32 min
Bit rate mode : Constant
Bit rate : 192 kb/s
Channel(s) : 2 channels
Channel positions : Front: L R
Sampling rate : 48.0 kHz
Frame rate : 31.250 FPS (1536 spf)
Compression mode : Lossy
Stream size : 127 MiB (6%)
Language : English
Default : No
Forced : No

Text
ID : 5
Format : UTF-8
Codec ID : S_TEXT/UTF8
Codec ID/Info : UTF-8 Plain Text
Duration : 1 h 27 min
Bit rate : 61 b/s
Count of elements : 1161
Stream size : 39.5 KiB (0%)
Language : English
Default : No
Forced : No
Рожева пантера 2 / The Pink Panther 2 (2009) AVC 2xUkr/Eng | sub Eng

Рожева пантера 2 / The Pink Panther 2 (2009) AVC 2xUkr/Eng | sub Eng

Рожева пантера. Дилогія / The Pink Panther. Dilogy (2006-2009) AVC 2xUkr/Eng | sub Eng


Жанр: пригодницький, комедія, сімейний, містика
Країна: США



Кінокомпанія: Metro-Goldwyn-Mayer (MGM), Columbia Pictures, Robert Simonds Productions; мейджор - Buena Vista Sony Pictures Releasing (BVSPR)
Режисер: Харольд Цварт
Актори: Стів Мартін, Жан Рено, Емілі Мортімер, Енді Ґарсіа, Альфред Моліна, Джон Кліз, Джеремі Айронс

Сюжет:
Успіх попередньої місії Жака Клюзо дозволив інспектору-катастрофі зайняти місце серед кращих детективів світу. Цього разу йому доведеться зловити міжнародного злочинця, що викрадає історичні цінності, і знову повернути «Рожеву пантеру» на місце.


Тривалість: 01:32:02
Якість:
Відео:
кодек:
розмір кадру: 1 024 х 560
бітрейт: 2 499 кб/с

Аудіо # 1:
мова: українська
переклад: професійний дубльований ,
кодек: 5.1
бітрейт: 448 кб/с

Аудіо # 2:
мова: українська
переклад: багатоголосий закадровий
кодек: 2.0
бітрейт: 192 кб/с

Аудіо # 3:
мова: англійська
переклад: оригінал
кодек: 2.0
бітрейт: 192 кб/с

Субтитри:
мова: англійська
тип: програмні (м'які)
формат: *.srt
Скріншоти














Про файл
General
Unique ID : 290942142888699651520135071290366855455 (0xDAE16B234C45151A4B1968AF78AB891F)
Format :
Format version : Version 4 / Version 2
File size : 2.14 GiB
Duration : 1 h 32 min
Overall bit rate : 3 332 kb/s
Movie name : Рожева пантера 2 / The Pink Panther 2 (2009)
Encoded date : UTC 2020-05-27 20:27:38
Writing application : v21.0.0 ('Tardigrades Will Inherit The Earth') 32-bit
Writing library : libebml v1.3.5 + v1.4.8
Cover : Yes
Attachments : cover.jpg

Video
ID : 1
Format : AVC
Format/Info : Advanced Video Codec
Format profile : [email protected]
Format settings, CABAC : Yes
Format settings, ReFrames : 8 frames
Codec ID : V_MPEG4/ISO/AVC
Duration : 1 h 32 min
Bit rate : 2 499 kb/s
Width : 1 024 pixels
Height : 560 pixels
Display aspect ratio : 1.85:1
Frame rate mode : Constant
Frame rate : 23.976 (24000/1001) FPS
Color space : YUV
Chroma subsampling : 4:2:0
Bit depth : 8 bits
Scan type : Progressive
Bits/(Pixel*Frame) : 0.182
Stream size : 1.61 GiB (75%)
Writing library : core 157 r2969 d4099dd
Encoding settings : cabac=1 / ref=8 / deblock=1:-1:-1 / analyse=0x3:0x133 / me=umh / subme=10 / psy=1 / psy_rd=1.00:0.15 / mixed_ref=1 / me_range=32 / chroma_me=1 / trellis=2 / 8x8dct=1 / cqm=0 / deadzone=21,11 / fast_pskip=0 / chroma_qp_offset=-3 / threads=6 / lookahead_threads=1 / sliced_threads=0 / nr=0 / decimate=1 / interlaced=0 / bluray_compat=0 / constrained_intra=0 / bframes=6 / b_pyramid=2 / b_adapt=2 / b_bias=0 / direct=3 / weightb=1 / open_gop=0 / weightp=2 / keyint=240 / keyint_min=23 / scenecut=40 / intra_refresh=0 / rc_lookahead=60 / rc=2pass / mbtree=1 / bitrate=2499 / ratetol=1.0 / qcomp=0.60 / qpmin=0 / qpmax=69 / qpstep=4 / cplxblur=20.0 / qblur=0.5 / vbv_maxrate=31250 / vbv_bufsize=31250 / nal_hrd=none / filler=0 / ip_ratio=1.40 / aq=1:1.00
Default : Yes
Forced : No

Audio #1
ID : 2
Format : AC-3
Format/Info : Audio Coding 3
Mode extension : CM (complete main)
Format settings, Endianness : Big
Codec ID : A_AC3
Duration : 1 h 32 min
Bit rate mode : Constant
Bit rate : 448 kb/s
Channel(s) : 6 channels
Channel positions : Front: L C R, Side: L R, LFE
Sampling rate : 48.0 kHz
Frame rate : 31.250 FPS (1536 spf)
Compression mode : Lossy
Stream size : 295 MiB (13%)
Title : Blu-ray
Language : Ukrainian
Default : Yes
Forced : Yes

Audio #2
ID : 3
Format : AC-3
Format/Info : Audio Coding 3
Mode extension : CM (complete main)
Format settings, Endianness : Big
Codec ID : A_AC3
Duration : 1 h 32 min
Bit rate mode : Constant
Bit rate : 192 kb/s
Channel(s) : 2 channels
Channel positions : Front: L R
Sampling rate : 48.0 kHz
Frame rate : 31.250 FPS (1536 spf)
Compression mode : Lossy
Stream size : 126 MiB (6%)
Title : Новий
Language : Ukrainian
Default : No
Forced : No

Audio #3
ID : 4
Format : AC-3
Format/Info : Audio Coding 3
Mode extension : CM (complete main)
Format settings, Endianness : Big
Codec ID : A_AC3
Duration : 1 h 32 min
Bit rate mode : Constant
Bit rate : 192 kb/s
Channel(s) : 2 channels
Channel positions : Front: L R
Sampling rate : 48.0 kHz
Frame rate : 31.250 FPS (1536 spf)
Compression mode : Lossy
Stream size : 126 MiB (6%)
Language : English
Default : No
Forced : No

Text
ID : 5
Format : UTF-8
Codec ID : S_TEXT/UTF8
Codec ID/Info : UTF-8 Plain Text
Duration : 1 h 26 min
Bit rate : 64 b/s
Count of elements : 978
Stream size : 41.1 KiB (0%)
Language : English
Default : Yes
Forced : No
Джерело:
За запис з НЛО дякую пану Bohdan237
За доріжки від Нового та дубляж дякую пану AngryBirdsUA
Особиста оцінка: гарні фільми


Бронзовий реліз (на рейтинг впливає 75% завантаженого)
 Трекер:    Зареєстрований   

Завантажити / скачати фільм українською



відео для новачків



 Зареєстрований:   2020-05-28 00:32
 Розмір:   4.14 GB 
 Оцінка фільму:   8.8/10 (Голосів: 8)
   
bot 
робот


З нами з: 30.09.07
Востаннє: 26.05.05
Повідомлень: 24931

2020-05-28 00:31  
Тему перенесено з Анонси релізів до форуму Фільми


Arsenfpu

bot 
робот


З нами з: 30.09.07
Востаннє: 26.05.05
Повідомлень: 24931

2020-05-28 00:44  
Тему перенесено з Фільми до форуму Фільми


Arsenfpu

lpershyi 
Попереджень: 2
Попереджень: 2 


З нами з: 04.01.11
Востаннє: 02.07.20
Повідомлень: 2849

2020-05-29 00:43  
Шкода, що всі, хто пробував читати текст українською, не можуть вимовити Гамбурґер.

Ваш часовий пояс: GMT + 2 Години

Нова тема   Відповісти