Смертельний лабіринт / House of 9 (2005) 1080p Ukr/Eng | Sub Eng

Нові коментарі

Нова тема   Відповісти
Автор Повідомлення
Anonymous 







2020-05-21 22:20  
Смертельний лабіринт / House of 9 (2005) 1080p Ukr/Eng | Sub Eng

Смертельний лабіринт / House of 9 (2005) 1080p Ukr/Eng | Sub Eng


Жанр: драма, трилер, жахи
Країна: Велика Британія, Франція, Румунія, Німеччина



Кінокомпанія: Bauer Martinez Studios, Defender Production, Defender Nine
Режисер: Стівен Р.Монро
Актори: Денніс Хопер, Келлі Брук, Іполіт Жирардо, С'юзі Емі, Пітер Капальді, Раффаелло Дегруттола, Ешлі Волтерс, Морвен Крісті, Жюльєн Девіс, Джим Картер

Сюжет:
Після того, як дев'ять незнайомих людей були викрадені, вони приходять в себе в ізольованому приміщенні. Голос через систему динаміків повідомляє їм, що в будинку встановлено безліч камер і мікрофонів, які фіксуватимуть всі рухи і звуки. Ще викраденим належить зіграти в гру, в якій переможе тільки один. Переможець отримає приз - 5 мільйонів доларів. А хто ж виявиться цим щасливчиком визначать самі учасники гри. Викрадені намагаються чинити опір з положенням справ, але незабаром вони заспокоюються і миряться. Гра почалася після того, як з однією з дівчат стався нещасний випадок, в результаті якого вона загинула. Тепер кожен починає свою гру не на життя, а на смерть...


Тривалість: 01:30:14
Якість: 1080p
Відео:
кодек:
розмір кадру: 1920х1080
бітрейт: 10 000 кб/с

Аудіо # 1:
мова: українська
переклад: багатоголосий закадровий
кодек: 2.0 (з 5.1)
бітрейт: 192 кб/с

Аудіо # 2:
мова: англійська
переклад: оригінал
кодек: E-AC-3 2.0
бітрейт: 224 кб/с

Субтитри:
мова: англійська
тип: програмні (м'які)
формат: *.srt
Info
General
Unique ID : 170351038074063126917838298526106788276 (0x80286AA19B6BAD599BAC792CC34821B4)
Complete name : E:\Toloka\2020\House of 9 (2005) 1080p.
Format :
Format version : Version 4
File size : 6.51 GiB
Duration : 1 h 30 min
Overall bit rate : 10.3 Mb/s
Encoded date : UTC 2020-05-21 19:14:06
Writing application : v6.1.0 ('Old Devil') built on Mar 4 2013 09:10:42
Writing library : libebml v1.3.0 + v1.4.0

Video
ID : 1
Format : AVC
Format/Info : Advanced Video Codec
Format profile : [email protected]
Format settings : CABAC / 4 Ref Frames
Format settings, CABAC : Yes
Format settings, RefFrames : 4 frames
Codec ID : V_MPEG4/ISO/AVC
Duration : 1 h 30 min
Bit rate mode : Constant
Bit rate : 10 000 kb/s
Width : 1 920 pixels
Height : 1 080 pixels
Display aspect ratio : 16:9
Frame rate mode : Constant
Frame rate : 23.976 (24000/1001) FPS
Color space : YUV
Chroma subsampling : 4:2:0
Bit depth : 8 bits
Scan type : Progressive
Bits/(Pixel*Frame) : 0.201
Stream size : 6.12 GiB (94%)
Language : English
Default : Yes
Forced : No
Color range : Limited
Color primaries : BT.709
Transfer characteristics : BT.709
Matrix coefficients : BT.709
Statistics Tags Issue : v31.0.0 ('Dolores In A Shoestand') 32-bit 2020-05-20 15:02:42 / v6.1.0 ('Old Devil') built on Mar 4 2013 09:10:42 2020-05-21 19:14:06
FromStats_BitRate : 9912407
FromStats_Duration : 01:30:14.326000000
FromStats_FrameCount : 129814
FromStats_StreamSize : 6708625910

Audio #1
ID : 2
Format : AC-3
Format/Info : Audio Coding 3
Commercial name : Dolby Digital
Codec ID : A_AC3
Duration : 1 h 30 min
Bit rate mode : Constant
Bit rate : 192 kb/s
Channel(s) : 2 channels
Channel layout : L R
Sampling rate : 48.0 kHz
Frame rate : 31.250 FPS (1536 SPF)
Bit depth : 16 bits
Compression mode : Lossy
Stream size : 124 MiB (2%)
Title : UKR (ТВі)
Language : Ukrainian
Service kind : Complete Main
Default : Yes
Forced : Yes

Audio #2
ID : 3
Format : E-AC-3
Format/Info : Enhanced AC-3
Commercial name : Dolby Digital Plus
Codec ID : A_EAC3
Duration : 1 h 30 min
Bit rate mode : Constant
Bit rate : 224 kb/s
Channel(s) : 2 channels
Channel layout : L R
Sampling rate : 48.0 kHz
Frame rate : 31.250 FPS (1536 SPF)
Compression mode : Lossy
Stream size : 145 MiB (2%)
Title : ENG
Language : English
Service kind : Complete Main
Default : No
Forced : No
Statistics Tags Issue : v31.0.0 ('Dolores In A Shoestand') 32-bit 2020-05-20 15:02:42 / v6.1.0 ('Old Devil') built on Mar 4 2013 09:10:42 2020-05-21 19:14:06
FromStats_BitRate : 224000
FromStats_Duration : 01:30:14.272000000
FromStats_FrameCount : 169196
FromStats_StreamSize : 151599616

Text #1
ID : 4
Format : UTF-8
Codec ID : S_TEXT/UTF8
Codec ID/Info : UTF-8 Plain Text
Title : ENG
Language : English
Default : No
Forced : No
Statistics Tags Issue : v31.0.0 ('Dolores In A Shoestand') 32-bit 2020-05-20 15:02:42 / v6.1.0 ('Old Devil') built on Mar 4 2013 09:10:42 2020-05-21 19:14:06
FromStats_BitRate : 46
FromStats_Duration : 01:29:37.152000000
FromStats_FrameCount : 1320
FromStats_StreamSize : 31483

Text #2
ID : 5
Format : UTF-8
Codec ID : S_TEXT/UTF8
Codec ID/Info : UTF-8 Plain Text
Title : ENG SDH
Language : English
Default : No
Forced : No
Statistics Tags Issue : v31.0.0 ('Dolores In A Shoestand') 32-bit 2020-05-20 15:02:42 / v6.1.0 ('Old Devil') built on Mar 4 2013 09:10:42 2020-05-21 19:14:06
FromStats_BitRate : 47
FromStats_Duration : 01:29:37.152000000
FromStats_FrameCount : 1320
FromStats_StreamSize : 31982
Скріншоти






За доріжку подяка п.: bodia87
Особиста подяка пану denixx за надану матеріальну допомогу на підтримку цього і майбутніх релізів.

Джерело:


 Трекер:    Зареєстрований   

Завантажити / скачати фільм українською



відео для новачків



 Зареєстрований:   2020-05-21 22:20
 Розмір:   6.51 GB 
 Оцінка фільму:   10/10 (Голосів: 3)
   
Інші релізи
   Смертельний лабіринт / House of 9 (2005) bodia87  3 / 0   1.46 GB   2013-08-01 19:21 
Ваш часовий пояс: GMT + 2 Години

Нова тема   Відповісти