Мінлива хмарність, часом фрикадельки 2: Міні-фільми / Cloudy with a Chance of Meatballs 2: Mini-Movies (2013) Remux 1080p Ukr/Eng

Нові коментарі

Нова тема   Відповісти
Автор Повідомлення
Anonymous 







2020-05-21 20:27  
Мінлива хмарність, часом фрикадельки 2: Міні-фільми / Cloudy with a Chance of Meatballs 2: Mini-Movies (2013) Remux 1080p Ukr/Eng

Мінлива хмарність, часом фрикадельки 2: Міні-фільми / Cloudy with a Chance of Meatballs 2: Mini-Movies (2013) Remux 1080p Ukr/Eng

1. 2. 3. 4.

Жанр: анімація, дитячий, сімейний
Країна: США
Кінокомпанія: анімація, дитячий, сімейний
Режисер: Девід Фейс
Актори: Бенджамін Бретт, Білл Хейдер, Ніл Патрік Гарріс,Енн Феріс, Крейг Келлман, Террі Крес, Коді Кемерон

Сюжет:
Короткометражні мультфільми "Напад 50-ти футувого ведмедика Гаммі", "Скаути Ерла", "Перше купання Стіва", "Супер Менні"- додаткові матеріали до мультфільму "Мінлива хмарність, часом фрикадельки 2"

Тривалість: 00:04:22 - 00:06:39
Якість: Remux

Відео:
кодек:
розмір кадру: 1920 x 1080
бітрейт: 17 800 кб/с

Аудіо # 1:
мова: українська
переклад: професійний дубльований
кодек: AC-3 2.0
бітрейт: 192 кб/с

Аудіо # 2:
мова: англійська
переклад: оригінал
кодек: AC-3 2.0
бітрейт: 192 кб/с


Info
Код:
General
Unique ID                                : 226434502547355176529244671517831667906 (0xAA59B2EA71C55C405F87BCD069A720C2)
Complete name                            : Attack of the 50 Foot Gummi Bear (2013) Remux 1080p [UKR_ENG] [Hurtom].
Format                                   :
Format version                           : Version 4
File size                                : 778 MiB
Duration                                 : 5 min 59 s
Overall bit rate mode                    : Variable
Overall bit rate                         : 18.2 Mb/s
Movie name                               : Напад 50-ти футувого ведмедика Гаммі / Attack of the 50 Foot Gummi Bear (2013)
Encoded date                             : UTC 2020-05-20 20:56:07
Writing application                      : v20.0.0 ('I Am The Sun') 64-bit
Writing library                          : libebml v1.3.5 + v1.4.8
Cover                                    : Yes
Attachments                              : Cover.jpg

Video
ID                                       : 1
Format                                   : AVC
Format/Info                              : Advanced Video Codec
Format profile                           : [email protected]
Format settings                          : CABAC / 2 Ref Frames
Format settings, CABAC                   : Yes
Format settings, Reference frames        : 2 frames
Codec ID                                 : V_MPEG4/ISO/AVC
Duration                                 : 5 min 58 s
Bit rate mode                            : Variable
Bit rate                                 : 17.8 Mb/s
Width                                    : 1 920 pixels
Height                                   : 1 080 pixels
Display aspect ratio                     : 16:9
Frame rate mode                          : Constant
Frame rate                               : 23.976 (24000/1001) FPS
Color space                              : YUV
Chroma subsampling                       : 4:2:0
Bit depth                                : 8 bits
Scan type                                : Progressive
Bits/(Pixel*Frame)                       : 0.358
Stream size                              : 762 MiB (98%)
Title                                    : Напад 50-ти футувого ведмедика Гаммі / Attack of the 50 Foot Gummi Bear (2013)
Default                                  : Yes
Forced                                   : No

Audio #1
ID                                       : 2
Format                                   : AC-3
Format/Info                              : Audio Coding 3
Commercial name                          : Dolby Digital
Codec ID                                 : A_AC3
Duration                                 : 5 min 59 s
Bit rate mode                            : Constant
Bit rate                                 : 192 kb/s
Channel(s)                               : 2 channels
Channel layout                           : L R
Sampling rate                            : 48.0 kHz
Frame rate                               : 31.250 FPS (1536 SPF)
Compression mode                         : Lossy
Stream size                              : 8.22 MiB (1%)
Title                                    : / 2.0 Ch / 192 kbps / ПД / Blu-Ray
Language                                 : Ukrainian
Service kind                             : Complete Main
Default                                  : Yes
Forced                                   : Yes

Audio #2
ID                                       : 3
Format                                   : AC-3
Format/Info                              : Audio Coding 3
Commercial name                          : Dolby Digital
Codec ID                                 : A_AC3
Duration                                 : 5 min 59 s
Bit rate mode                            : Constant
Bit rate                                 : 192 kb/s
Channel(s)                               : 2 channels
Channel layout                           : L R
Sampling rate                            : 48.0 kHz
Frame rate                               : 31.250 FPS (1536 SPF)
Compression mode                         : Lossy
Stream size                              : 8.22 MiB (1%)
Title                                    : / 2.0 Ch / 192 kbps / Original
Language                                 : English
Service kind                             : Complete Main
Default                                  : No
Forced                                   : No
Світлини












Джерело: &
Особиста оцінка: 0 - не дивився


Золотий реліз (завантажене не впливає на рейтинг)
 Трекер:    Зареєстрований   

Завантажити / скачати мультфільм українською



відео для новачків



 Зареєстрований:   2020-05-21 20:27
 Розмір:   2.81 GB 
 Оцінка мультфільму:   10/10 (Голосів: 2)
   
Ваш часовий пояс: GMT + 2 Години

Нова тема   Відповісти