Ніч у Роксбері / A Night At The Roxbury (1998) 1080p H.265 Ukr/Eng | Sub Eng

Нові коментарі

Нова тема   Відповісти
Останній раз роздавалося mdikovich (2020-08-14)
Автор Повідомлення
Anonymous 







2020-05-21 14:04  
Ніч у Роксбері / A Night At The Roxbury (1998) 1080p H.265 Ukr/Eng | Sub Eng

Ніч у Роксбері / A Night At The Roxbury (1998) 1080p H.265 Ukr/Eng | Sub Eng


Жанр: комедія
Країна: США
Кінокомпанія: Paramount Pictures, SNL Studios
Режисер: Джон Фортенберрі
Актори: Вілл Ферелл, Кріс Кеттен, Ден Хедайя, Лоні Андерсон, Моллі Шеннон, Майкл Кларк Дункан, Річард Греко, Єва Мендес

Сюжет:
Вони носять елегантні костюми й золоті ланцюги. У них модні зачіски і стильні бакенбарди. Їх місце існування - нічні клуби. Стимул їх життя - красиві жінки. Їх найзаповітніша мрія - потрапити в престижний і недоступний клуб "Роксбері" ...

Тривалість: 01:21:57
Якість:

Відео:
кодек: H.265 (HEVC)
розмір кадру: 1920 x 1080
бітрейт: 12 432 кб/с
бітова глибина: 10 біт

Увага! Перед завантаженням переконайтесь, що ваш пристрій відтворення (та/або ПЗ) підтримує H.265 (HEVC)

Аудіо # 1:
мова: українська
переклад: багатоголосий закадровий
кодек: AC-3 2.0
бітрейт: 192 кб/с

Аудіо # 2:
мова: англійська
переклад: оригінал
кодек: E-AC-3 5.1
бітрейт: 640 кб/с

Субтитри # 1: (Full)
мова: англійська
тип: програмні (м'які)
формат: *.srt


Info
Код:
General
Unique ID                                : 332085049224716972417570723651687429966 (0xF9D54108AB1BBBC054316EE1A922374E)
Complete name                            : A Night at the Roxbury (1998) 1080p H.265 [UKR_ENG] [Hurtom].
Format                                   :
Format version                           : Version 4
File size                                : 7.59 GiB
Duration                                 : 1 h 21 min
Overall bit rate                         : 13.3 Mb/s
Movie name                               : Ніч у Роксбері / A Night At The Roxbury (1998)
Encoded date                             : UTC 2020-05-20 21:14:38
Writing application                      : v20.0.0 ('I Am The Sun') 64-bit
Writing library                          : libebml v1.3.5 + v1.4.8
Attachments                              : poster.jpg

Video
ID                                       : 1
Format                                   : HEVC
Format/Info                              : High Efficiency Video Coding
Format profile                           : Main [email protected]@High
Codec ID                                 : V_MPEGH/ISO/HEVC
Duration                                 : 1 h 21 min
Bit rate                                 : 12.4 Mb/s
Width                                    : 1 920 pixels
Height                                   : 1 080 pixels
Display aspect ratio                     : 16:9
Frame rate mode                          : Constant
Frame rate                               : 23.976 (24000/1001) FPS
Color space                              : YUV
Chroma subsampling                       : 4:2:0
Bit depth                                : 10 bits
Bits/(Pixel*Frame)                       : 0.250
Stream size                              : 7.12 GiB (94%)
Title                                    : Ніч у Роксбері / A Night At The Roxbury (1998)
Writing library                          : x265 3.1+7-147fb92c5ed5:[Windows][clang 8.0.0][64 bit] 10bit
Encoding settings                        : cpuid=1111039 / frame-threads=13 / wpp / no-pmode / no-pme / no-psnr / no-ssim / log-level=3 / input-csp=1 / input-res=1920x1080 / interlace=0 / total-frames=0 / level-idc=41 / high-tier=1 / uhd-bd=0 / ref=5 / allow-non-conformance / no-repeat-headers / annexb / no-aud / no-hrd / info / hash=0 / no-temporal-layers / open-gop / min-keyint=23 / keyint=240 / gop-lookahead=0 / bframes=8 / b-adapt=2 / b-pyramid / bframe-bias=0 / rc-lookahead=60 / lookahead-slices=4 / scenecut=60 / radl=0 / no-splice / no-intra-refresh / ctu=64 / min-cu-size=8 / rect / amp / max-tu-size=32 / tu-inter-depth=4 / tu-intra-depth=4 / limit-tu=4 / rdoq-level=2 / dynamic-rd=0.00 / no-ssim-rd / signhide / no-tskip / nr-intra=0 / nr-inter=0 / no-constrained-intra / no-strong-intra-smoothing / max-merge=5 / limit-refs=1 / limit-modes / me=3 / subme=7 / merange=57 / temporal-mvp / no-hme / weightp / weightb / no-analyze-src-pics / deblock=-3:-3 / no-sao / no-sao-non-deblock / rd=6 / no-early-skip / no-rskip / no-fast-intra / no-tskip-fast / no-cu-lossless / b-intra / no-splitrd-skip / rdpenalty=0 / psy-rd=2.00 / psy-rdoq=1.00 / no-rd-refine / no-lossless / cbqpoffs=0 / crqpoffs=0 / rc=crf / crf=20.0 / qcomp=0.70 / qpstep=4 / stats-write=0 / stats-read=0 / vbv-maxrate=50000 / vbv-bufsize=50000 / vbv-init=0.9 / crf-max=30.0 / crf-min=0.0 / ipratio=1.40 / pbratio=1.30 / aq-mode=2 / aq-strength=1.00 / no-cutree / zone-count=0 / no-strict-cbr / qg-size=32 / no-rc-grain / qpmax=69 / qpmin=0 / no-const-vbv / sar=1 / overscan=0 / videoformat=5 / range=0 / colorprim=1 / transfer=1 / colormatrix=1 / chromaloc=0 / display-window=0cll=0,0 / min-luma=0 / max-luma=1023 / log2-max-poc-lsb=8 / vui-timing-info / vui-hrd-info / slices=1 / no-opt-qp-pps / no-opt-ref-list-length-pps / no-multi-pass-opt-rps / scenecut-bias=0.05 / no-opt-cu-delta-qp / no-aq-motion / no-hdr / no-hdr-opt / no-dhdr10-opt / no-idr-recovery-sei / analysis-reuse-level=5 / scale-factor=0 / refine-intra=0 / refine-inter=0 / refine-mv=0 / refine-ctu-distortion=0 / no-limit-sao / ctu-info=0 / no-lowpass-dct / refine-analysis-type=1694526976 / copy-pic=1 / max-ausize-factor=1.0 / no-dynamic-refine / no-single-sei / no-hevc-aq / no-svt / no-field / qp-adaptation-range=1.00
Language                                 : English
Default                                  : Yes
Forced                                   : No
Color range                              : Limited
Color primaries                          : BT.709
Transfer characteristics                 : BT.709
Matrix coefficients                      : BT.709

Audio #1
ID                                       : 2
Format                                   : AC-3
Format/Info                              : Audio Coding 3
Commercial name                          : Dolby Digital
Codec ID                                 : A_AC3
Duration                                 : 1 h 21 min
Bit rate mode                            : Constant
Bit rate                                 : 192 kb/s
Channel(s)                               : 2 channels
Channel layout                           : L R
Sampling rate                            : 48.0 kHz
Frame rate                               : 31.250 FPS (1536 SPF)
Compression mode                         : Lossy
Stream size                              : 113 MiB (1%)
Title                                    : / 2.0 Ch / 192 kbps / БЗ / K1
Language                                 : Ukrainian
Service kind                             : Complete Main
Default                                  : Yes
Forced                                   : Yes

Audio #2
ID                                       : 3
Format                                   : E-AC-3
Format/Info                              : Enhanced AC-3
Commercial name                          : Dolby Digital Plus
Codec ID                                 : A_EAC3
Duration                                 : 1 h 21 min
Bit rate mode                            : Constant
Bit rate                                 : 640 kb/s
Channel(s)                               : 6 channels
Channel layout                           : L R C LFE Ls Rs
Sampling rate                            : 48.0 kHz
Frame rate                               : 31.250 FPS (1536 SPF)
Compression mode                         : Lossy
Stream size                              : 375 MiB (5%)
Title                                    : E- / 5.1 Ch / 640 kbps / Original
Language                                 : English
Service kind                             : Complete Main
Default                                  : No
Forced                                   : No

Text
ID                                       : 4
Format                                   : UTF-8
Codec ID                                 : S_TEXT/UTF8
Codec ID/Info                            : UTF-8 Plain Text
Duration                                 : 1 h 16 min
Bit rate                                 : 57 b/s
Count of elements                        : 691
Stream size                              : 32.1 KiB (0%)
Title                                    : Full
Language                                 : English
Default                                  : No
Forced                                   : No

Menu
00:00:00.000                             : en:We're Not on the List?
00:07:44.033                             : en:Mom's New Chin
00:09:40.368                             : en:Dad's Fake Plant Store
00:15:34.002                             : en:Crunch Time
00:16:39.035                             : en:Roxbury! Roxbury!
00:21:57.002                             : en:Rites of Passage
00:26:08.035                             : en:The Club of All Clubs
00:33:25.169                             : en:Fluffy Whip
00:35:41.836                             : en:Important Contacts
00:41:22.704                             : en:Family Crisis
00:44:31.339                             : en:A Meeting
00:47:21.539                             : en:The Ladies Await
00:50:59.141                             : en:Ex-Brothers
00:54:56.808                             : en:Emily
01:00:58.142                             : en:Coming Together
01:03:31.676                             : en:My Best Man
01:10:18.477                             : en:Reconciliation
01:13:19.645                             : en:Our Club
01:17:13.479                             : en:Titles
01:21:52.146                             : en:Chapter 20
Світлини




Джерело: &
Особиста оцінка: 0 - не дивився


Срібний реліз (на рейтинг впливає 50% завантаженого)
 Трекер:    Зареєстрований   

Завантажити / скачати фільм українською



відео для новачків



 Зареєстрований:   2020-05-21 14:04
 Розмір:   7.59 GB 
 Оцінка фільму:   9/10 (Голосів: 2)
   
Інші релізи
11994455 
Попереджень: 2
Попереджень: 2 


З нами з: 07.04.14
Востаннє: 20.09.20
Повідомлень: 618

2020-07-23 20:47  
Шо цікаво дівчатам чомусь цей фільм неподобається... через кінцівку певне...
Ваш часовий пояс: GMT + 2 Години

Нова тема   Відповісти