Вбивці живуть у Бразилії / The Boys from Brazil (1978) Remux 1080p Ukr/Eng | Sub Eng

Нові коментарі

Нова тема   Відповісти
Останній раз роздавалося MakRA (2020-09-23)
Автор Повідомлення
MakRA 
VIP


З нами з: 11.11.18
Востаннє: 23.09.20
Повідомлень: 1119

2020-05-21 10:44  
Вбивці живуть у Бразилії / The Boys from Brazil (1978) Remux 1080p Ukr/Eng | Sub Eng


Альтернативні оригінальні постери:


Жанр: детектив, трилер, драма
Країна: США , Велика Британія



Кінокомпанія: Lew Grade, Producers Circle, Incorporated Television Company (ITC)
Режисер: Франклін Дж. Шеффнер [Franklin J. Schaffner]
Актори: Ґреґорі Пек [Gregory Peck], Лоуренс Олів'є [Laurence Olivier], Джеймс Мейсон [James Mason], Ліллі Палмер [Lilli Palmer], Ута Гаґен [Uta Hagen], Стів Ґутенберґ [Steve Guttenberg], Денголм Елліотт [Denholm Elliott], Розмарі Гарріс [Rosemary Harris], Джон Денер [John Dehner], Джон Рубінштейн [John Rubinstein]

Сюжет:
Кінець 70-х років. Баррі Колер, молодий мисливець за нацистами вистежує групу колишніх офіцерів СС в Парагваї. Нацисти на чолі з лікарем Менгеле дещо планують.
Відомий мисливець за нацистами Езра Ліберман дуже зацікавився результатами Келера і прагне дізнатися більше. Ліберман відвідує кілька будинків в Європі і США для того, щоб розкрити змову нацистів. Саме в одному з цих будинків він помічає щось дивне...


Тривалість: 02:04:58
Якість: Remux 1080p [UK Transfer]
Відео:
кодек: VC-1
розмір кадру: 1920 х 1080
бітрейт: 20 Mб/с

Аудіо # 1:
мова: українська
переклад: двоголосий закадровий
кодек: 2.0
бітрейт: 192 кб/с
примітка: звук оцифровано з VHS
Про озвучення:
Текст читали актори: Олесь Гімбаржевський та Лариса Руснак
Аудіо # 2:
мова: англійська
переклад: оригінал
кодек: 2.0
бітрейт: 640 кб/с

Субтитри: (Full)
мова: англійська
тип: програмні (м'які)
формат: *.srt

Субтитри: (Full)
мова: англійська
тип: пререндерні
формат: *.pgs

Збережено оригінальні іменовані розділи, як на Blu-ray.
Info
General
Unique ID : 257169594756899212170250026377434917186 (0xC1790FF50B41C8DA5289AD5FEB646942)
Complete name : M:\+ Фільми в HD\Трилер, політичний детектив\The Boys from Brazil (1978) Remux 1080p UkrEng Sub Eng [Hurtom].
Format :
Format version : Version 4
File size : 18.2 GiB
Duration : 2 h 4 min
Overall bit rate : 20.9 Mb/s
Movie name : Вбивці живуть у Бразилії / The Boys from Brazil (1978) Remux 1080p Ukr/Eng | Sub Eng [Hurtom]
Encoded date : UTC 2020-05-21 21:11:51
Writing application : v44.0.0 ('Domino') 64-bit
Writing library : libebml v1.3.10 + v1.5.2
Cover : Yes
Attachments : cover.jpg

Video
ID : 1
Format : VC-1
Format profile : [email protected]
Codec ID : V_MS/VFW/FOURCC / WVC1
Codec ID/Hint : Microsoft
Duration : 2 h 4 min
Bit rate : 20.0 Mb/s
Width : 1 920 pixels
Height : 1 080 pixels
Display aspect ratio : 16:9
Frame rate mode : Constant
Frame rate : 24.000 FPS
Color space : YUV
Chroma subsampling : 4:2:0
Bit depth : 8 bits
Scan type : Progressive
Compression mode : Lossy
Bits/(Pixel*Frame) : 0.402
Stream size : 17.5 GiB (96%)
Title : The Boys from Brazil (1978) Remux 1080p Ukr/Eng | Sub Eng [Hurtom]
Language : Ukrainian
Default : Yes
Forced : Yes

Audio #1
ID : 2
Format : AC-3
Format/Info : Audio Coding 3
Commercial name : Dolby Digital
Codec ID : A_AC3
Duration : 2 h 4 min
Bit rate mode : Constant
Bit rate : 192 kb/s
Channel(s) : 2 channels
Channel layout : L R
Sampling rate : 48.0 kHz
Frame rate : 31.250 FPS (1536 SPF)
Compression mode : Lossy
Stream size : 172 MiB (1%)
Title : DVO [1+1] | VHS
Language : Ukrainian
Service kind : Complete Main
Default : Yes
Forced : Yes

Audio #2
ID : 3
Format : AC-3
Format/Info : Audio Coding 3
Commercial name : Dolby Digital
Codec ID : A_AC3
Duration : 2 h 4 min
Bit rate mode : Constant
Bit rate : 640 kb/s
Channel(s) : 2 channels
Channel layout : L R
Sampling rate : 48.0 kHz
Frame rate : 31.250 FPS (1536 SPF)
Compression mode : Lossy
Stream size : 572 MiB (3%)
Title : Original 2.0
Language : English
Service kind : Complete Main
Default : No
Forced : No

Text #1
ID : 4
Format : UTF-8
Codec ID : S_TEXT/UTF8
Codec ID/Info : UTF-8 Plain Text
Duration : 1 h 59 min
Bit rate : 49 b/s
Count of elements : 1232
Stream size : 43.6 KiB (0%)
Title : Eng (Full) SRT
Language : English
Default : No
Forced : No

Text #2
ID : 5
Format : PGS
Muxing mode : zlib
Codec ID : S_HDMV/PGS
Codec ID/Info : Picture based subtitle format used on BDs/HD-DVDs
Duration : 1 h 59 min
Bit rate : 38.5 kb/s
Count of elements : 2464
Stream size : 33.0 MiB (0%)
Title : Eng (Full) PGS
Language : English
Default : No
Forced : No

Menu
00:00:00.000 : en:Opening Credits
00:06:45.167 : en:The Nazi Hunters
00:13:21.250 : en:The Mysterious Project
00:27:55.250 : en:Kohler's Evidence
00:35:26.625 : en:A Special Place
00:44:58.208 : en:Lieberman Investigates
00:54:58.917 : en:A Bunch of Fanatics
01:01:28.500 : en:Cloning
01:14:31.000 : en:Mengele's Rage
01:24:05.208 : en:A World of Mozart & Picasso
01:33:39.458 : en:Destroying the Shrine
01:42:35.083 : en:Final Confrontation
01:49:59.833 : en:Born of the Noblest Blood
01:58:06.542 : en:94 Young Hitler's
02:02:29.125 : en:End Credits
Скріншоти
Джерело: &
Подяка п. Tanat13 за запис з ТБ та п. ninenine за синхронізацію.
Особиста оцінка: 9 - давно не бачив настільки якісне кіно


Золотий реліз (завантажене не впливає на рейтинг)
 Трекер:    Зареєстрований   

Завантажити / скачати фільм українською



відео для новачків



 Зареєстрований:   2020-05-22 00:48
 Розмір:   18.21 GB 
 Оцінка фільму:   9.8/10 (Голосів: 5)
   
Інші релізи
bot 
робот


З нами з: 30.09.07
Востаннє: 26.05.05
Повідомлень: 25578

2020-05-22 00:48  
Тему перенесено з Анонси релізів до форуму Фільми в HD


MakRA

Ваш часовий пояс: GMT + 2 Години

Нова тема   Відповісти