Прибрати Картера / Get Carter (2000) AVC [Open Matte] 3xUkr/Eng

Нові коментарі

Нова тема   Відповісти
Автор Повідомлення
21jumpstreet 
VIP


З нами з: 03.07.12
Востаннє: 02.07.20
Повідомлень: 1091

2020-05-20 21:31  
Прибрати Картера / Get Carter (2000) AVC [Open Matte] 3xUkr/Eng


Прибрати Картера / Get Carter (2000) AVC [Open Matte] 3xUkr/Eng


Жанр: Бойовик
Країна: США



Кінокомпанія: Warner Bros, Franchise Pictures, Morgan Creek
Режисер: Стівен Кей
Актори: Сільвестр Сталоне, Міккі Рурк, сер Майкл Кейн, Алан Каммінґ, Рейчел Лі Кук та інші

Сюжет:
Рімейк однойменної стрічки 1971 року із Майклом Кейном.
Всі, хто знайомий з Джеком Картером знають, що з ним краще не зв'язуватися. Джек - неперевершений фахівець за вирішенням різних «проблем». Потрібно вибити гроші у боржника? Джек справиться з цим швидко і жорстоко. Потрібно розібратися з якимись знахабнілими хлопцями? Джек зробить так, що ці хлопці назавжди забудуть, як виглядає дорога на Лас-Вегас. Загалом, у кримінальному світі столиці грального бізнесу «таланти» Джека поважають і цінують... Все почалося з дуже поганої новини. На іншому кінці Америки, в дощовому Сієтлі, гине рідний брат Картера, і Джек відправляється на похорони. Щось підказує йому, що брат не помер своєю смертю. Джек переконаний, що брату "допомогли" відправитися на той світ ...


Тривалість: 01:42:44
Якість: AVC
Відео:
кодек:
розмір кадру: 1024 х 576
бітрейт: 2590 кб/с

Аудіо # 1:
мова: українська
переклад: багатоголосий закадровий (DVB-T2)
кодек: 2.0
бітрейт: 192 кб/с
Ролі озвучили: Сільвестр Сталоне - Михайло Жонін, Юлія Перенчук, Роман Чорний, Павло Скороходько, Олександр Погребняк, Євген Пашин, Дмитро Терещук, Андрій Твердак та інші

Аудіо # 2:
мова: українська
переклад: багатоголосий закадровий
кодек: 2.0
бітрейт: 192 кб/с
Ролі озвучили: Сільвестр Сталоне - Олег Стальчук, Юрій Гребельник, Анатолій Пашнін та Олена Бліннікова

Аудіо # 3:
мова: українська
переклад: багатоголосий закадровий
кодек: 2.0
бітрейт: 192 кб/с
Ролі озвучили: Сільвестр Сталоне - Юрій Гребельник, Володимир Терещук, Анатолій Пашнін та Олена Бліннікова

Аудіо # 4:
мова: англійська
переклад: оригінал
кодек: 2.0
бітрейт: 192 кб/с

Субтитри:
мова: англійська | повні
тип: програмні (м'які)
формат: *.srt
Скріншоти



Info
C:\Get Carter (2000) AVC [3xUkr,Eng] [Hurtom].
General
Unique ID : 100701524984406557061613660068794995245 (0x4BC2688280596FC16C9C1BFF2852122D)
Complete name : C:\Get Carter (2000) AVC [3xUkr,Eng] [Hurtom].
Format :
Format version : Version 4 / Version 2
File size : 2.41 GiB
Duration : 1 h 42 min
Overall bit rate : 3 359 kb/s
Movie name : Get Carter (2000) AVC [3xUkr,Eng] [Hurtom]
Encoded date : UTC 2020-05-21 06:38:44
Writing application : v22.0.0 ('At The End Of The World') 32-bit
Writing library : libebml v1.3.5 + v1.4.8
Attachments : 16082717232325733_f0_0.jpg
Video #1
ID : 1
Format : AVC
Format/Info : Advanced Video Codec
Format profile : [email protected]
Format settings, CABAC : Yes
Format settings, ReFrames : 12 frames
Codec ID : V_MPEG4/ISO/AVC
Duration : 1 h 42 min
Bit rate : 2 590 kb/s
Width : 1 024 pixels
Height : 576 pixels
Display aspect ratio : 16:9
Frame rate mode : Constant
Frame rate : 23.976 (24000/1001) FPS
Color space : YUV
Chroma subsampling : 4:2:0
Bit depth : 8 bits
Scan type : Progressive
Bits/(Pixel*Frame) : 0.183
Stream size : 1.86 GiB (77%)
Title : RIP_BY_-=DoMiNo=-
Writing library : core 157 r2958 57baac4
Encoding settings : cabac=1 / ref=12 / deblock=1:-2:-2 / analyse=0x3:0x133 / me=umh / subme=11 / psy=1 / psy_rd=1.00:0.15 / mixed_ref=1 / me_range=32 / chroma_me=1 / trellis=2 / 8x8dct=1 / cqm=0 / deadzone=21,11 / fast_pskip=0 / chroma_qp_offset=-3 / threads=6 / lookahead_threads=1 / sliced_threads=0 / nr=0 / decimate=0 / interlaced=0 / bluray_compat=0 / constrained_intra=0 / bframes=12 / b_pyramid=2 / b_adapt=2 / b_bias=0 / direct=3 / weightb=1 / open_gop=0 / weightp=2 / keyint=240 / keyint_min=24 / scenecut=40 / intra_refresh=0 / rc_lookahead=60 / rc=2pass / mbtree=0 / bitrate=2590 / ratetol=1.0 / qcomp=0.70 / qpmin=0 / qpmax=69 / qpstep=4 / cplxblur=20.0 / qblur=0.5 / vbv_maxrate=50000 / vbv_bufsize=62500 / nal_hrd=none / filler=0 / ip_ratio=1.40 / pb_ratio=1.30 / aq=3:0.80
Language : English
Default : Yes
Forced : No
Color range : Limited
Color primaries : BT.709
Transfer characteristics : BT.709
Matrix coefficients : BT.709
Audio #2
ID : 2
Format : AC-3
Format/Info : Audio Coding 3
Mode extension : CM (complete main)
Format settings, Endianness : Big
Codec ID : A_AC3
Duration : 1 h 42 min
Bit rate mode : Constant
Bit rate : 192 kb/s
Channel(s) : 2 channels
Channel positions : Front: L R
Sampling rate : 48.0 kHz
Frame rate : 31.250 FPS (1536 spf)
Compression mode : Lossy
Stream size : 141 MiB (6%)
Language : Ukrainian
Default : Yes
Forced : Yes
Audio #3
ID : 3
Format : AC-3
Format/Info : Audio Coding 3
Mode extension : CM (complete main)
Format settings, Endianness : Big
Codec ID : A_AC3
Duration : 1 h 42 min
Bit rate mode : Constant
Bit rate : 192 kb/s
Channel(s) : 2 channels
Channel positions : Front: L R
Sampling rate : 48.0 kHz
Frame rate : 31.250 FPS (1536 spf)
Compression mode : Lossy
Stream size : 141 MiB (6%)
Language : Ukrainian
Default : No
Forced : No
Audio #4
ID : 4
Format : AC-3
Format/Info : Audio Coding 3
Mode extension : CM (complete main)
Format settings, Endianness : Big
Codec ID : A_AC3
Duration : 1 h 42 min
Bit rate mode : Constant
Bit rate : 192 kb/s
Channel(s) : 2 channels
Channel positions : Front: L R
Sampling rate : 48.0 kHz
Frame rate : 31.250 FPS (1536 spf)
Compression mode : Lossy
Stream size : 141 MiB (6%)
Language : Ukrainian
Default : No
Forced : No
Audio #5
ID : 5
Format : AC-3
Format/Info : Audio Coding 3
Mode extension : CM (complete main)
Format settings, Endianness : Big
Codec ID : A_AC3
Duration : 1 h 42 min
Bit rate mode : Constant
Bit rate : 192 kb/s
Channel(s) : 2 channels
Channel positions : Front: L R
Sampling rate : 48.0 kHz
Frame rate : 31.250 FPS (1536 spf)
Compression mode : Lossy
Stream size : 141 MiB (6%)
Language : English
Default : No
Forced : No
Text #6
ID : 6
Format : UTF-8
Codec ID : S_TEXT/UTF8
Codec ID/Info : UTF-8 Plain Text
Duration : 1 h 36 min
Bit rate : 48 b/s
Count of elements : 1085
Stream size : 34.0 KiB (0%)
Title : English Full SDH
Language : English
Default : No
Forced : No
Величезні та найщиріші подяки:
Запис звуку з ТБ: 2+2 - Bohdan237, xslim
ICTV - slavik_v_z
НТН - SweetN, NemoInFire
Зведення: kryk-v.ya., Arsenfpu, patriot2305
За допомогу: kryk-v.ya.

Особиста оцінка: 5/10. Краще б на голосування поставили класичний оригінал Прибрати Картера 1971 року. Маленький спойлер: персонажа Майкла Кейна вбивають двічі: як в оригіналі, так і в рімейку.


Срібний реліз (на рейтинг впливає 50% завантаженого)
 Трекер:    Зареєстрований   

Завантажити / скачати фільм українською



відео для новачків



 Зареєстрований:   2020-05-21 10:04
 Розмір:   2.41 GB 
 Оцінка фільму:   9.8/10 (Голосів: 4)
   
Інші релізи
bot 
робот


З нами з: 30.09.07
Востаннє: 26.05.05
Повідомлень: 24915

2020-05-20 21:31  
Тему перенесено з Фільми до форуму Анонси релізів


21jumpstreet

bot 
робот


З нами з: 30.09.07
Востаннє: 26.05.05
Повідомлень: 24915

2020-05-21 10:03  
Тему перенесено з Анонси релізів до форуму Фільми


21jumpstreet

Ваш часовий пояс: GMT + 2 Години

Нова тема   Відповісти