Раґнарок (Сезон 1) / Ragnarok (Season 1) (1/6) (2020) 720p Ukr/Nor | Sub Ukr/Nor

Нові коментарі

Нова тема   Відповісти
Автор Повідомлення
UFDUB_TR 
Частий відвідувач


З нами з: 08.02.20
Востаннє: 29.05.20
Повідомлень: 44

2020-05-20 13:16  
Раґнарок (Сезон 1) / Ragnarok (Season 1) (2020) 720p Ukr/Nor | Sub Ukr/Nor




Країна:Норвегія, Данія
Рік виходу: 2020
Жанри: драма, фентезі
Тривалість: 6 серій по ~45хв
Режисер: Яннік Йогансен, Моґенс Гаґедорн
Студія:SAM Productions
Актори: Емма Боунс, Сінневе Макоді Лунд, Тереза Фростад Еґебсо, Йонас Странд Ґравлі, Девід Александр Шегольт.



Сюжет::
У центрі сюжету опиняється Маґне — хворий на дислексію хлопець, який повернувся в рідне містечко Едда разом з матір'ю і молодшим братом. У новій школі він подружився з Ізольдою — активісткою з охорони навколишнього середовища, яка веде канал на YouTube, де розповідає про деградацію міста і швидке танення льодовиків. В тому що, відбуваються природні катаклізми дівчина звинувачує впливову родину Ютул, яка займається протиправною діяльністю. Однак лише завдяки Маґне Ізольді нарешті вдається з'ясувати, що дії родини багатіїв набагато страшніші, ніж вона припускала....



Якість: 720p
Відео:
кодек:
розмір кадру: 1280 х 640
бітрейт: 8400 кб/с
Аудіо:
мова: українська
переклад: Багатоголосий закадровий UFDUB.com
кодек: 5.1
бітрейт: 529 кб/с
Аудіо:
мова: норвезька
переклад: оригінал
кодек: E- 5.1
бітрейт: 640 кб/с
Субтитри:
мова: українська
переклад: SubAutumn
тип: програмні (м'які)
формат: *.srt
Субтитри:
мова: норвезька
переклад: Оригінал
тип: програмні (м'які)
формат: *.srt


Переклад та озвучення виконано:
Переклад:Спільнота SubAutumn
Ролі озвучили:VOLCUA, irennneri, Stepalex, Hoshi, Ayla, Smile2you, DpaHbaLT, Maxx_light, Kumandriy, Дядько Ґрей
Робота зі звуком:VOLCUA
Команда озвучення: UFDUB.com
Постер: Hoshi

Тех. деталі ^_^

General
Unique ID : 238493661608502071735085445912984374728 (0xB36C355C93473E45C3963BE3376D4DC8)
Complete name : D:\Серія 1-РАҐНАРОК\VIDEO (1) (2).
Format :
Format version : Version 4
File size : 3.08 GiB
Duration : 45 min 49 s
Overall bit rate : 9 622 kb/s
Encoded date : UTC 2020-05-18 22:12:38
Writing application : v43.0.0 ('The Quartermaster') 64-bit
Writing library : libebml v1.3.10 + v1.5.2 / Lavf58.27.103
Video
ID : 1
Format : AVC
Format/Info : Advanced Video Codec
Format profile : [email protected]
Format settings : CABAC / 10 Ref Frames
Format settings, CABAC : Yes
Format settings, Reference : 10 frames
Codec ID : V_MPEG4/ISO/AVC
Duration : 45 min 48 s
Bit rate : 8 446 kb/s
Width : 1 280 pixels
Height : 640 pixels
Display aspect ratio : 2.000
Frame rate mode : Constant
Frame rate : 24.000 FPS
Color space : YUV
Chroma subsampling : 4:2:0
Bit depth : 8 bits
Scan type : Progressive
Bits/(Pixel*Frame) : 0.430
Stream size : 2.70 GiB (88%)
Writing library : core 158 r2984 3759fcb
Encoding settings : cabac=1 / ref=10 / deblock=1:-3:-3 / analyse=0x3:0x133 / me=umh / subme=10 / psy=1 / psy_rd=1.00:0.00 / mixed_ref=1 / me_range=48 / chroma_me=1 / trellis=2 / 8x8dct=1 / cqm=0 / deadzone=21,11 / fast_pskip=0 / chroma_qp_offset=-2 / threads=12 / lookahead_threads=2 / sliced_threads=0 / nr=0 / decimate=0 / interlaced=0 / bluray_compat=0 / constrained_intra=0 / bframes=8 / b_pyramid=2 / b_adapt=2 / b_bias=0 / direct=3 / weightb=1 / open_gop=0 / weightp=2 / keyint=250 / keyint_min=24 / scenecut=40 / intra_refresh=0 / rc=crf / mbtree=0 / crf=16.0 / qcomp=0.60 / qpmin=0 / qpmax=69 / qpstep=4 / ip_ratio=1.30 / pb_ratio=1.20 / aq=3:0.80
Language : Norwegian Bokmal
Default : Yes
Forced : No
Audio #1
ID : 2
Format : LC
Format/Info : Advanced Audio Codec Low Complexity
Codec ID : A_AAC-2
Duration : 45 min 49 s
Bit rate : 529 kb/s
Channel(s) : 6 channels
Channel layout : C L R Ls Rs LFE
Sampling rate : 48.0 kHz
Frame rate : 46.875 FPS (1024 SPF)
Compression mode : Lossy
Stream size : 176 MiB (6%)
Title : Багатоголосе закадрове озвучення UFDUB.com
Language : Ukrainian
Default : Yes
Forced : No
Audio #2
ID : 4
Format : E-AC-3
Format/Info : Enhanced AC-3
Commercial name : Dolby Digital Plus
Codec ID : A_EAC3
Duration : 45 min 48 s
Bit rate mode : Constant
Bit rate : 640 kb/s
Channel(s) : 6 channels
Channel layout : L R C LFE Ls Rs
Sampling rate : 48.0 kHz
Frame rate : 31.250 FPS (1536 SPF)
Compression mode : Lossy
Stream size : 210 MiB (7%)
Language : Norwegian Bokmal
Service kind : Complete Main
Default : No
Forced : No
Text #1
ID : 3
Format : UTF-8
Codec ID : S_TEXT/UTF8
Codec ID/Info : UTF-8 Plain Text
Duration : 44 min 6 s
Bit rate : 72 b/s
Count of elements : 438
Stream size : 23.5 KiB (0%)
Title : Спільнота SubAutumn
Language : Ukrainian
Default : No
Forced : No
Text #2
ID : 5
Format : UTF-8
Codec ID : S_TEXT/UTF8
Codec ID/Info : UTF-8 Plain Text
Duration : 38 min 54 s
Bit rate : 52 b/s
Count of elements : 426
Stream size : 15.0 KiB (0%)
Language : Norwegian Bokmal
Default : No
Forced : No
Скріншоти

Список серій

1.New Boy
2.541 Meters
3.Jutulheim
4.Ginnugagap
5.Atomic Number 48
6.Yes, We Love This Country


Авторський реліз (завантажувати можна без реєстрації)
 Трекер:    Зареєстрований   

Завантажити / скачати серіал українською



відео для новачків



 Зареєстрований:   2020-05-20 21:57
 Розмір:   3 GB 
 Оцінка серіалу:   10/10 (Голосів: 12)
   
troubless 
Свій


З нами з: 15.06.11
Востаннє: 29.05.20
Повідомлень: 50

2020-05-20 15:20  
А що зі звуком?
UFDUB_TR 
Частий відвідувач


З нами з: 08.02.20
Востаннє: 29.05.20
Повідомлень: 44

2020-05-20 18:50  
troubless

Що ви маєте на увазі?

UFDUB_TR 
Частий відвідувач


З нами з: 08.02.20
Востаннє: 29.05.20
Повідомлень: 44

2020-05-20 22:00  
Було виправлено файлову помилку
yaroslaigor 
Свій


З нами з: 10.08.09
Востаннє: 29.05.20
Повідомлень: 70

2020-05-21 01:40  
А з якої мови зроблено переклад?
arikalumoto 
Частий відвідувач


З нами з: 03.03.15
Востаннє: 29.05.20
Повідомлень: 43

2020-05-22 12:04  
Є проблеми з програванням на андроїд приставці на ТВ, багато артефактів на екрані в vlc, в штатному програвачі постійні зависання картинки.
Dasistkino 
Новенький


З нами з: 26.07.19
Востаннє: 28.05.20
Повідомлень: 7

2020-05-26 20:51  
Невже не було іншого автомобіля для цього кіно тільки це гівно ТАЗ 2109 !? Happy)
Ваш часовий пояс: GMT + 2 Години

Нова тема   Відповісти