Кролик Джоджо / Jojo Rabbit (2019) UHD Remux 4K 2160p 3xUkr/Eng | Sub 2xUkr/Eng

Нові коментарі

Нова тема   Відповісти
Автор Повідомлення
Anonymous 







2020-05-20 10:16  


Кролик Джоджо / Jojo Rabbit (2019) UHD Remux 4K 2160p 3xUkr/Eng | Sub 2xUkr/Eng



«An anti-hate satire»



Кролик Джоджо / Jojo Rabbit (2019) UHD Remux 4K 2160p 3xUkr/Eng | Sub 2xUkr/Eng



Жанр: сатирична комедія, драма
Країна: США, Нова Зеландія, Чехія






Оскар і премія Британської кіноакадемії за найкращий адаптований сценарій


Детальніше про основні нагороди та номінації:
Міжнародний кінофестиваль у Торонто - 2019

Переможець (1):

Гран-прі (вибір глядачів) - Найкращий фільм

Оскар - 2020 (за 2019 рік)

Переможець (1):

Найкращий адаптований сценарій - Тайка Вайтіті / Taika Waititi

Номінації (5):

Найкращий фільм

Найкращий монтаж

Найкращий дизайн костюмів

Найкраща робота художника-постановника

Найкраща жіноча роль другого плану - Скарлет Йогансен / Scarlett Johansson

Золотий Глобус - 2020 (за 2019 рік)

Номінації (2):

Найкращий фільм (комедія або мюзикл)

Найкраща чоловіча роль (комедія або мюзикл) - Роман Ґріффін Девіс / Roman Griffin Davis

Британська академія телебачення та кіномистецтва - Премія BAFTA - 2020 (за 2019 рік)

Переможець (1):

Найкращий адаптований сценарій - Тайка Вайтіті / Taika Waititi

Номінації (5):

Найкращий монтаж

Найкраща музика до фільму

Найкращий дизайн костюмів

Найкраща робота художника-постановника

Найкраща жіноча роль другого плану - Скарлет Йогансен / Scarlett Johansson


Кінокомпанія: TSG Entertainment, Piki Films, Defender Films, Czech Anglo Productions
Режисер: Тайка Вайтіті / Taika Waititi
Актори: Роман Ґріффін Девіс / Roman Griffin Davis, Томасін МакКензі / Thomasin McKenzie, Скарлет Йогансен / Scarlett Johansson, Тайка Вайтіті / Taika Waititi, Сем Роквел / Sam Rockwell, Ребел Вілсон / Rebel Wilson, Алфі Аллен / Alfie Allen, Стівен Мерчант / Stephen Merchant, Арчі Єйтс / Archie Yates та інші


Сюжет:
«Кролик Джоджо» - це сатиричний фільм про Другу світову війну, що розкаже про самотнього німецького хлопчика (Роман Ґріффін Девіс у ролі Джоджо), чий світогляд перевертається з ніг на голову, коли він дізнається, що його самотня мати (Скарлет Йогансен) переховує на горищі їхнього дому молоду єврейську дівчину (Томасін МакКензі). Джоджо буде змушений поставити під сумнів сліпу віру в нацизм і правоту свого дурнуватого уявного друга Адольфа Гітлера (Тайка Вайтіті).



Рейтинг MPAA: PG-13 - не рекомендується для перегляду дітям до 13 років
Вікова категорія: 12+


Тривалість: 01:48:23
Якість: UHD Remux 4K 2160p

Відео:
кодек: H.265 (HEVC)
розмір кадру: 3840x2160
бітрейт: 60200 кб/с
бітова глибина: 10 біт
кольоровий простір: BT.2020 (HDR)

Аудіо # 1:
мова: українська
переклад: професійний дубльований
кодек: 2.0 (стерео)
бітрейт: 192 кб/с
Інформація про дубляж




Аудіо # 2:
мова: українська
переклад: багатоголосий закадровий
кодек: 2.0 (стерео)
бітрейт: 192 кб/с

Аудіо # 3:
мова: українська
переклад: одноголосий закадровий [Burton Jey]
кодек: 5.1
бітрейт: 448 кб/с

Аудіо # 4:
мова: англійська
переклад: оригінал
кодек: 5.1
бітрейт: 640 кб/с

Аудіо # 5:
мова: англійська
переклад: оригінал
кодек: -HD MA 5.1
бітрейт: 3341 кб/с

Аудіо # 6:
мова: англійська
переклад: коментарі режисера Тайки Вайтіті
кодек: 2.0
бітрейт: 224 кб/с

Субтитри # 1 (Forced):
мова: українська
тип: програмні (м'які)
формат: *.srt
редагування: SurFutur

Субтитри # 2 (Full):
мова: українська
тип: програмні (м'які)
формат: *.srt
переклад: офіційний, Анастасія Жищинська
Українські офіційні субтитри також можна завантажити окремо: Subscene

Субтитри # 3 (Full):
мова: українська
тип: програмні (м'які)
формат: *.srt
редагування: SurFutur
Українські субтитри також можна завантажити окремо з OpenSubtitles або Subscene

Субтитри # 4 - 5 (Full, SDH):
мова: англійська
тип: програмні (м'які)
формат: *.srt


Збережено оригінальні розділи, як на Blu-ray.

Info
Код:
General
Complete name                            : Jojo Rabbit (2019) UHD Remux 2160p H.265 HDR 4K [UKR_ENG] [Video_Hurtom].
Format                                   :
Format version                           : Version 4
File size                                : 49.4 GiB
Duration                                 : 1 h 48 min
Overall bit rate mode                    : Variable
Overall bit rate                         : 65.3 Mb/s
Movie name                               : Кролик Джоджо / Jojo Rabbit (2019)
Encoded date                             : UTC 2020-05-22 21:20:32
Writing application                      : v30.1.0 ('Forever And More') 64-bit
Writing library                          : libebml v1.3.6 + v1.4.9
Cover                                    : Yes
Attachments                              : cover.jpeg

Video
ID                                       : 1
Format                                   : HEVC
Format/Info                              : High Efficiency Video Coding
Commercial name                          : HDR10
Format profile                           : Main [email protected]@High
Codec ID                                 : V_MPEGH/ISO/HEVC
Duration                                 : 1 h 48 min
Bit rate                                 : 60.2 Mb/s
Width                                    : 3 840 pixels
Height                                   : 2 160 pixels
Display aspect ratio                     : 16:9
Frame rate mode                          : Constant
Frame rate                               : 23.976 (24000/1001) FPS
Color space                              : YUV
Chroma subsampling                       : 4:2:0 (Type 2)
Bit depth                                : 10 bits
Bits/(Pixel*Frame)                       : 0.303
Stream size                              : 45.6 GiB (92%)
Title                                    : Jojo.Rabbit.2019.UHD Remux.H.265.2160p.HDR.10.bit.Master5
Language                                 : English
Default                                  : Yes
Forced                                   : No
Color range                              : Limited
Color primaries                          : BT.2020
Transfer characteristics                 : PQ
Matrix coefficients                      : BT.2020 non-constant
Mastering display color primaries        : Display P3
Mastering display luminance              : min: 0.0050 cd/m2, max: 1000 cd/m2

Audio #1
ID                                       : 2
Format                                   : AC-3
Format/Info                              : Audio Coding 3
Commercial name                          : Dolby Digital
Codec ID                                 : A_AC3
Duration                                 : 1 h 48 min
Bit rate mode                            : Constant
Bit rate                                 : 192 kb/s
Channel(s)                               : 2 channels
Channel layout                           : L R
Sampling rate                            : 48.0 kHz
Frame rate                               : 31.250 FPS (1536 SPF)
Bit depth                                : 16 bits
Compression mode                         : Lossy
Stream size                              : 149 MiB (0%)
Title                                    : Dub [Stereo], 2.0 192 Kbps
Language                                 : Ukrainian
Service kind                             : Complete Main
Default                                  : Yes
Forced                                   : No

Audio #2
ID                                       : 3
Format                                   : AC-3
Format/Info                              : Audio Coding 3
Commercial name                          : Dolby Digital
Codec ID                                 : A_AC3
Duration                                 : 1 h 48 min
Bit rate mode                            : Constant
Bit rate                                 : 192 kb/s
Channel(s)                               : 2 channels
Channel layout                           : L R
Sampling rate                            : 48.0 kHz
Frame rate                               : 31.250 FPS (1536 SPF)
Bit depth                                : 16 bits
Compression mode                         : Lossy
Stream size                              : 149 MiB (0%)
Title                                    : Ictv [Stereo], 2.0 192 Kbps
Language                                 : Ukrainian
Service kind                             : Complete Main
Default                                  : No
Forced                                   : No

Audio #3
ID                                       : 4
Format                                   : AC-3
Format/Info                              : Audio Coding 3
Commercial name                          : Dolby Digital
Codec ID                                 : A_AC3
Duration                                 : 1 h 48 min
Bit rate mode                            : Constant
Bit rate                                 : 448 kb/s
Channel(s)                               : 6 channels
Channel layout                           : L R C LFE Ls Rs
Sampling rate                            : 48.0 kHz
Frame rate                               : 31.250 FPS (1536 SPF)
Bit depth                                : 16 bits
Compression mode                         : Lossy
Stream size                              : 347 MiB (1%)
Title                                    : 5.1 | 448
Language                                 : Ukrainian
Service kind                             : Complete Main
Default                                  : No
Forced                                   : No

Audio #4
ID                                       : 5
Format                                   : AC-3
Format/Info                              : Audio Coding 3
Commercial name                          : Dolby Digital
Codec ID                                 : A_AC3
Duration                                 : 1 h 48 min
Bit rate mode                            : Constant
Bit rate                                 : 640 kb/s
Channel(s)                               : 6 channels
Channel layout                           : L R C LFE Ls Rs
Sampling rate                            : 48.0 kHz
Frame rate                               : 31.250 FPS (1536 SPF)
Bit depth                                : 16 bits
Compression mode                         : Lossy
Stream size                              : 496 MiB (1%)
Title                                    : 5.1 | 640
Language                                 : English
Service kind                             : Complete Main
Default                                  : No
Forced                                   : No

Audio #5
ID                                       : 6
Format                                   : XLL
Format/Info                              : Digital Theater Systems
Commercial name                          : -HD Master Audio
Codec ID                                 : A_DTS
Duration                                 : 1 h 48 min
Bit rate mode                            : Variable
Bit rate                                 : 3 341 kb/s
Channel(s)                               : 6 channels
Channel layout                           : C L R Ls Rs LFE
Sampling rate                            : 48.0 kHz
Frame rate                               : 93.750 FPS (512 SPF)
Bit depth                                : 24 bits
Compression mode                         : Lossless
Stream size                              : 2.53 GiB (5%)
Title                                    : -HD MA 5.1 | 3341
Language                                 : English
Default                                  : No
Forced                                   : No

Audio #6
ID                                       : 7
Format                                   : AC-3
Format/Info                              : Audio Coding 3
Commercial name                          : Dolby Digital
Codec ID                                 : A_AC3
Duration                                 : 1 h 48 min
Bit rate mode                            : Constant
Bit rate                                 : 224 kb/s
Channel(s)                               : 2 channels
Channel layout                           : L R
Sampling rate                            : 48.0 kHz
Frame rate                               : 31.250 FPS (1536 SPF)
Bit depth                                : 16 bits
Compression mode                         : Lossy
Stream size                              : 174 MiB (0%)
Title                                    : Commentary by Director Taika Waititi
Language                                 : English
Service kind                             : Complete Main
Default                                  : No
Forced                                   : No

Text #1
ID                                       : 8
Format                                   : UTF-8
Codec ID                                 : S_TEXT/UTF8
Codec ID/Info                            : UTF-8 Plain Text
Duration                                 : 12 s 700 ms
Bit rate                                 : 122 b/s
Count of elements                        : 5
Stream size                              : 194 Bytes (0%)
Title                                    : Forced
Language                                 : Ukrainian
Default                                  : Yes
Forced                                   : No

Text #2
ID                                       : 9
Format                                   : UTF-8
Codec ID                                 : S_TEXT/UTF8
Codec ID/Info                            : UTF-8 Plain Text
Duration                                 : 1 h 48 min
Bit rate                                 : 83 b/s
Count of elements                        : 1460
Stream size                              : 65.8 KiB (0%)
Title                                    : Full
Language                                 : Ukrainian
Default                                  : No
Forced                                   : No

Text #3
ID                                       : 10
Format                                   : UTF-8
Codec ID                                 : S_TEXT/UTF8
Codec ID/Info                            : UTF-8 Plain Text
Duration                                 : 1 h 42 min
Bit rate                                 : 96 b/s
Count of elements                        : 1364
Stream size                              : 72.7 KiB (0%)
Title                                    : Full
Language                                 : Ukrainian
Default                                  : No
Forced                                   : No

Text #4
ID                                       : 11
Format                                   : UTF-8
Codec ID                                 : S_TEXT/UTF8
Codec ID/Info                            : UTF-8 Plain Text
Duration                                 : 1 h 47 min
Bit rate                                 : 61 b/s
Count of elements                        : 1635
Stream size                              : 48.8 KiB (0%)
Title                                    : Full
Language                                 : English
Default                                  : No
Forced                                   : No

Text #5
ID                                       : 12
Format                                   : UTF-8
Codec ID                                 : S_TEXT/UTF8
Codec ID/Info                            : UTF-8 Plain Text
Duration                                 : 1 h 48 min
Bit rate                                 : 64 b/s
Count of elements                        : 1795
Stream size                              : 51.5 KiB (0%)
Title                                    : SDH
Language                                 : English
Default                                  : No
Forced                                   : No

Menu
00:00:00.000                             : en:Chapter 01
00:06:04.906                             : en:Chapter 02
00:09:25.523                             : en:Chapter 03
00:13:34.522                             : en:Chapter 04
00:16:17.059                             : en:Chapter 05
00:20:09.333                             : en:Chapter 06
00:27:09.461                             : en:Chapter 07
00:31:02.861                             : en:Chapter 08
00:36:30.146                             : en:Chapter 09
00:39:45.967                             : en:Chapter 10
00:44:13.192                             : en:Chapter 11
00:49:53.782                             : en:Chapter 12
00:53:17.194                             : en:Chapter 13
00:59:35.113                             : en:Chapter 14
01:03:34.019                             : en:Chapter 15
01:08:32.483                             : en:Chapter 16
01:14:20.498                             : en:Chapter 17
01:17:36.485                             : en:Chapter 18
01:22:13.387                             : en:Chapter 19
01:26:20.675                             : en:Chapter 20
01:29:24.901                             : en:Chapter 21
01:32:28.042                             : en:Chapter 22
01:37:15.371                             : en:Chapter 23
01:41:03.015                             : en:Chapter 24

Скріншоти




Джерело: &
Особиста оцінка: 0 - не дивився


Над доріжками працювали: PuMa.ua, Bohdan237, Sando7, Burton Jey


Кролик Джоджо / Jojo Rabbit (2019) UHD Remux 4K 2160p 3xUkr/Eng | Sub 2xUkr/Eng



Увага! Перед завантаженням переконайтесь, що ваш пристрій відтворення (та/або ПЗ) підтримує H.265 (HEVC)


Авторський реліз (завантажувати можна без реєстрації)
 Трекер:    Зареєстрований   

Завантажити / скачати фільм українською



відео для новачків



 Зареєстрований:   2020-05-23 14:52
 Розмір:   49.41 GB 
 Оцінка фільму:   9.7/10 (Голосів: 6)
   
Anonymous 







2020-05-23 14:56  
Реліз готовий!
revolt 
Новенький


З нами з: 13.06.09
Востаннє: 26.05.20
Повідомлень: 12

2020-05-23 16:01  
Ніхто не знає, чому на цю стрічку немає офіційного дубляжу? У вікіпедії вказано, що дублювала студія "Постмодерн".
PuMa.ua 
VIP


З нами з: 29.08.08
Востаннє: 27.05.20
Повідомлень: 408

2020-05-23 17:40  
revolt
а перша доріжка в цій роздачі, з вказаною інформацію про тих хто дублював на студії постмодерн, це що?!

revolt 
Новенький


З нами з: 13.06.09
Востаннє: 26.05.20
Повідомлень: 12

2020-05-23 21:11  
PuMa.ua
Ой, не помітив :D

Ваш часовий пояс: GMT + 2 Години

Нова тема   Відповісти