Тиха Земля / The Quiet Earth (1985) 1080p Ukr/Eng | Sub Eng

Нові коментарі

Нова тема   Відповісти
Автор Повідомлення
taraskill1 
Відео Гуртом - фільмокрай
Відео Гуртом - фільмокрай


З нами з: 21.01.12
Востаннє: 24.01.21
Повідомлень: 1310

2020-05-18 20:00  
Тиха Земля / The Quiet Earth (1985) 1080p Ukr/Eng | Sub Eng

Тиха Земля / The Quiet Earth (1985) 1080p Ukr/Eng | Sub Eng


Жанр: драма, фантастика, містика, постапокаліпсис
Країна: Нова Зеландія



Кінокомпанія: Cinepro
Режисер: Джефф Мерфі / Geoff Murphy
Актори: Бруно Ловренс / Bruno Lawrence, Елісон Рутледж / Alison Routledge, Піт Сміт / Pete Smith, Анзак Волас / Anzac Wallace та інші

Сюжет:
Зак Хобсон одного разу прокинувся вранці і виявив, що він єдина людина, що залишився на Землі. Зак може вибрати собі будь-яке житло і будь-яку вподобану машину. Однак незабаром він починає втрачати розум, бо немає нікого, з ким би можна було поговорити. І тут з'являється симпатична Джоанн, яка, виявляється, теж вижила. Якийсь час Зак і Елісон живуть разом, поки на їхньому шляху не встає Апі - ще один вижив. Будучи вченим, Зак одного разу приходить до висновку, що їм трьом пощастило тому, що вони всі знаходилися перед смертю в момент зникнення інших людей. А в лабораторії, в якій працював Зак, якраз проводився експеримент СПАЛАХ, що продовжує здійснюватися в автоматичному режимі. Зак вирішує підірвати лабораторію


Тривалість: 01:27:15
Якість: 1080
Відео:
кодек:
розмір кадру: 1920x1038
бітрейт: ~12.6 мб/с

Аудіо # 1:
мова: українська
переклад: двоголосий закадровий
кодек: 2.0
бітрейт: 192 кб/с

Аудіо # 2:
мова: англійська
переклад: оригінал
кодек: 5.1
бітрейт: 1509 кб/с

Субтитри:
мова: англійська
тип: програмні (м'які)
формат: *.srt
Info
Код:
General
Unique ID                   : 162676546077181838582492130629475246197 (0x7A625CF658C61AC0FAA28AD1A30E2075)
Complete name               : D:\The Quiet Earth (1985) [Ukr,Eng] 1080p [Hurtom].
Format                      :
Format version              : Version 4
File size                   : 8.92 GiB
Duration                    : 1 h 27 min
Overall bit rate            : 14.6 Mb/s
Movie name                  : The Quiet Earth (1985)
Encoded date                : UTC 2020-05-17 18:24:36
Writing application         : v45.0.0 ('Heaven in Pennies') 64-bit
Writing library             : libebml v1.3.10 + v1.5.2

Video
ID                          : 1
Format                      : AVC
Format/Info                 : Advanced Video Codec
Format profile              : [email protected]
Format settings             : CABAC / 4 Ref Frames
Format settings, CABAC      : Yes
Format settings, Reference  : 4 frames
Codec ID                    : V_MPEG4/ISO/AVC
Duration                    : 1 h 27 min
Bit rate                    : 12.9 Mb/s
Width                       : 1 920 pixels
Height                      : 1 038 pixels
Display aspect ratio        : 1.85:1
Frame rate mode             : Constant
Frame rate                  : 25.000 FPS
Color space                 : YUV
Chroma subsampling          : 4:2:0
Bit depth                   : 8 bits
Scan type                   : Progressive
Bits/(Pixel*Frame)          : 0.260
Stream size                 : 7.89 GiB (88%)
Title                       : The Quiet Earth (1985)
Writing library             : core 130 r2273 b3065e6
Encoding settings           : cabac=1 / ref=4 / deblock=1:-1:-1 / analyse=0x3:0x113 / me=umh / subme=9 / psy=1 / psy_rd=1.00:0.15 / mixed_ref=1 / me_range=24 / chroma_me=1 / trellis=2 / 8x8dct=1 / cqm=0 / deadzone=21,11 / fast_pskip=1 / chroma_qp_offset=-3 / threads=6 / lookahead_threads=1 / sliced_threads=0 / nr=0 / decimate=1 / interlaced=0 / bluray_compat=0 / constrained_intra=0 / bframes=8 / b_pyramid=2 / b_adapt=2 / b_bias=0 / direct=1 / weightb=0 / open_gop=0 / weightp=2 / keyint=240 / keyint_min=24 / scenecut=40 / intra_refresh=0 / rc=crf / mbtree=0 / crf=21.7 / qcomp=0.60 / qpmin=0 / qpmax=69 / qpstep=4 / ip_ratio=1.40 / pb_ratio=1.30 / aq=1:1.00
Language                    : English
Default                     : Yes
Forced                      : No

Audio #1
ID                          : 2
Format                      : AC-3
Format/Info                 : Audio Coding 3
Commercial name             : Dolby Digital
Codec ID                    : A_AC3
Duration                    : 1 h 27 min
Bit rate mode               : Constant
Bit rate                    : 192 kb/s
Channel(s)                  : 2 channels
Channel layout              : L R
Sampling rate               : 48.0 kHz
Frame rate                  : 31.250 FPS (1536 SPF)
Bit depth                   : 16 bits
Compression mode            : Lossy
Stream size                 : 120 MiB (1%)
Title                       : Двоголосий закадровий, "1+1"
Language                    : Ukrainian
Service kind                : Complete Main
Default                     : Yes
Forced                      : Yes

Audio #2
ID                          : 3
Format                      :
Format/Info                 : Digital Theater Systems
Codec ID                    : A_DTS
Duration                    : 1 h 27 min
Bit rate mode               : Constant
Bit rate                    : 1 509 kb/s
Channel(s)                  : 6 channels
Channel layout              : C L R Ls Rs LFE
Sampling rate               : 48.0 kHz
Frame rate                  : 93.750 FPS (512 SPF)
Bit depth                   : 16 bits
Compression mode            : Lossy
Stream size                 : 942 MiB (10%)
Title                       : Original
Language                    : English
Default                     : No
Forced                      : No

Text
ID                          : 4
Format                      : UTF-8
Codec ID                    : S_TEXT/UTF8
Codec ID/Info               : UTF-8 Plain Text
Duration                    : 1 h 17 min
Bit rate                    : 32 b/s
Count of elements           : 519
Stream size                 : 18.5 KiB (0%)
Title                       : Original
Language                    : English
Default                     : Yes
Forced                      : No


Джерело:
Звукозапис з ТБ: MAKAPOHHIK, urij546724, karvai0
Зведення звуку: robotron005
Особиста оцінка: 9 - давно не бачив настільки якісне кіно


Срібний реліз (на рейтинг впливає 50% завантаженого)
 Трекер:    Зареєстрований   

Завантажити / скачати фільм українською



відео для новачків



 Зареєстрований:   2020-05-18 20:00
 Розмір:   8.92 GB 
 Оцінка фільму:   10/10 (Голосів: 5)
   
Інші релізи
   Тиха Земля / The Quiet Earth (1985) Ukr/Eng robotron005  4 / 0   1.73 GB   2011-08-22 14:00 
rlvk 
Новенький


З нами з: 10.07.18
Востаннє: 24.01.21
Повідомлень: 12

2021-01-14 01:23  
Дяка, спогад юнацтва. Шикарна стрічка, з задоволенням переглянув... і в колекцію Happy
-Star-Lord- 
VIP


З нами з: 09.08.18
Востаннє: 24.01.21
Повідомлень: 2299

2021-01-14 02:05  
Ваш часовий пояс: GMT + 2 Години

Нова тема   Відповісти